WWE NXT UK 2021 07 29 1080p Online Free Replay

WWE NXT UK 2021 07 29 1080p Online Free Replay DX-TV

WWE NXT UK 2021

 WWE NXT UK 2021

 

 

 

Download Links with premium High Speed


 

Dopapk

 

 

Show Links

 

http://shrt10.com/phay2h3R
http://shrt10.com/2hbNbjupv

 

[collapse]

 

 

Nitroflare

 

 

Show Links

 

http://shrt10.com/HAVB8
http://shrt10.com/bhptQX

 

[collapse]

 

 

Rapidgator

 

 

Show Links

 

http://shrt10.com/fCfyKxeK
http://shrt10.com/FjsgmdxaZ

 

[collapse]

 

 

Uploaded

 

 

Show Links

 

http://shrt10.com/GOhYpqpHI
http://shrt10.com/TNQsm

 

[collapse]

 

 

Watch online

 

Server 1

 

 

 

 

WWE NXT UK 2021

 

 

 

 

Server-2

 

 

 

 

watch now

 

 

 

|Server-3

 

 

 

 

watch now

 

 

Uploaded By Site DX-TV.com

 

 

Show Info This Show

 

WWE NXT UK 2021

 

Complete name : WWE.NXT.UK.2021.07.29.720p.Hi.WEB.h264-HEEL.mp4
Format : MPEG-4
Format profile : Base Media
Codec ID : isom
File size : 1.36 GiB
Duration : 54 min 53 s
Overall bit rate mode : Variable
Overall bit rate : 3 534 kb/s

Video
ID : 1
Format : AVC
Format/Info : Advanced Video
Duration : 54 min 53 s
Bit rate : 3 372 kb/s
Width : 1 280 pixels
Height : 720 pixels
Display aspect ratio : 16:9
Frame rate mode : Constant
Frame rate : 30.000 FPS
Color space : YUV
Chroma subsampling : 4:2:0
Bit depth : 8 bits
Scan type : Progressive
Bits/(Pixel*Frame) : 0.122
Stream size : 1.28 GiB (94%)

WWE NXT UK 2021

Audio
ID : 2
Format : AAC LC
Format/Info : Advanced Audio
Codec ID : mp4a-40-2
Duration : 54 min 53 s
Bit rate mode : Constant
Bit rate : 192 kb/s
Channel(s) : 2 channels
Channel layout : L R
Sampling rate : 48.0 kHz
Frame rate : 46.875 FPS (1024 SPF)
Compression mode : Lossy
Stream size : 75.6 MiB (5%)
Default : Yes
Alternate group : 1

Text
ID : 3
Format : Timed Text
Muxing mode : sbtl
Codec ID : tx3g
Duration : 54 min 45 s
Bit rate mode : Variable
Bit rate : 103 b/s
Stream size : 41.4 KiB (0%)
Language : English
Default : Yes
Forced : No
Alternate group : 3

WWE NXT UK 2021

Complete name : WWE.NXT.UK.2021.07.29.1080p.WEB.h264-HEEL.mp4
Format : MPEG-4
Format profile : Base Media
Codec ID : isom
File size : 3.04 GiB
Duration : 54 min 53 s
Overall bit rate mode : Variable
Overall bit rate : 7 923 kb/s

Video
ID : 1
Format : AVC
Format/Info : Advanced Video
Duration : 54 min 53 s
Bit rate : 7 808 kb/s
Width : 1 920 pixels
Height : 1 080 pixels
Display aspect ratio : 16:9
Frame rate mode : Constant
Frame rate : 30.000 FPS
Color space : YUV
Chroma subsampling : 4:2:0
Bit depth : 8 bits
Scan type : Progressive
Bits/(Pixel*Frame) : 0.126
Stream size : 2.96 GiB (97%)

WWE NXT UK 2021

Audio
ID : 2
Format : AAC LC
Format/Info : Advanced Audio
Codec ID : mp4a-40-2
Duration : 54 min 53 s
Bit rate mode : Constant
Bit rate : 192 kb/s
Channel(s) : 2 channels
Channel layout : L R
Sampling rate : 48.0 kHz
Frame rate : 46.875 FPS (1024 SPF)
Compression mode : Lossy
Stream size : 75.6 MiB (2%)
Default : Yes
Alternate group : 1

WWE NXT UK 2021

Text
ID : 3
Format : Timed Text
Muxing mode : sbtl
Codec ID : tx3g
Duration : 54 min 45 s
Bit rate mode : Variable
Bit rate : 103 b/s
Stream size : 41.4 KiB (0%)
Language : English
Default : Yes
Forced : No
Alternate group : 3

WWE NXT UK 2021

 

Complete name : WWE.NXT.UK.2021.07.29.720p.Hi.WEB.h264-HEEL.mp4
Format : MPEG-4
Format profile : Base Media
Codec ID : isom
File size : 1.36 GiB
Duration : 54 min 53 s
Overall bit rate mode : Variable
Overall bit rate : 3 534 kb/s

Video
ID : 1
Format : AVC
Format/Info : Advanced Video
Duration : 54 min 53 s
Bit rate : 3 372 kb/s
Width : 1 280 pixels
Height : 720 pixels
Display aspect ratio : 16:9
Frame rate mode : Constant
Frame rate : 30.000 FPS
Color space : YUV
Chroma subsampling : 4:2:0
Bit depth : 8 bits
Scan type : Progressive
Bits/(Pixel*Frame) : 0.122
Stream size : 1.28 GiB (94%)

WWE NXT UK 2021

Audio
ID : 2
Format : AAC LC
Format/Info : Advanced Audio
Codec ID : mp4a-40-2
Duration : 54 min 53 s
Bit rate mode : Constant
Bit rate : 192 kb/s
Channel(s) : 2 channels
Channel layout : L R
Sampling rate : 48.0 kHz
Frame rate : 46.875 FPS (1024 SPF)
Compression mode : Lossy
Stream size : 75.6 MiB (5%)
Default : Yes
Alternate group : 1

Text
ID : 3
Format : Timed Text
Muxing mode : sbtl
Codec ID : tx3g
Duration : 54 min 45 s
Bit rate mode : Variable
Bit rate : 103 b/s
Stream size : 41.4 KiB (0%)
Language : English
Default : Yes
Forced : No
Alternate group : 3

WWE NXT UK 2021

Complete name : WWE.NXT.UK.2021.07.29.1080p.WEB.h264-HEEL.mp4
Format : MPEG-4
Format profile : Base Media
Codec ID : isom
File size : 3.04 GiB
Duration : 54 min 53 s
Overall bit rate mode : Variable
Overall bit rate : 7 923 kb/s

Video
ID : 1
Format : AVC
Format/Info : Advanced Video
Duration : 54 min 53 s
Bit rate : 7 808 kb/s
Width : 1 920 pixels
Height : 1 080 pixels
Display aspect ratio : 16:9
Frame rate mode : Constant
Frame rate : 30.000 FPS
Color space : YUV
Chroma subsampling : 4:2:0
Bit depth : 8 bits
Scan type : Progressive
Bits/(Pixel*Frame) : 0.126
Stream size : 2.96 GiB (97%)

WWE NXT UK 2021

Audio
ID : 2
Format : AAC LC
Format/Info : Advanced Audio
Codec ID : mp4a-40-2
Duration : 54 min 53 s
Bit rate mode : Constant
Bit rate : 192 kb/s
Channel(s) : 2 channels
Channel layout : L R
Sampling rate : 48.0 kHz
Frame rate : 46.875 FPS (1024 SPF)
Compression mode : Lossy
Stream size : 75.6 MiB (2%)
Default : Yes
Alternate group : 1

WWE NXT UK 2021

Text
ID : 3
Format : Timed Text
Muxing mode : sbtl
Codec ID : tx3g
Duration : 54 min 45 s
Bit rate mode : Variable
Bit rate : 103 b/s
Stream size : 41.4 KiB (0%)
Language : English
Default : Yes
Forced : No
Alternate group : 3

WWE NXT UK 2021

 

Complete name : WWE.NXT.UK.2021.07.29.720p.Hi.WEB.h264-HEEL.mp4
Format : MPEG-4
Format profile : Base Media
Codec ID : isom
File size : 1.36 GiB
Duration : 54 min 53 s
Overall bit rate mode : Variable
Overall bit rate : 3 534 kb/s

Video
ID : 1
Format : AVC
Format/Info : Advanced Video
Duration : 54 min 53 s
Bit rate : 3 372 kb/s
Width : 1 280 pixels
Height : 720 pixels
Display aspect ratio : 16:9
Frame rate mode : Constant
Frame rate : 30.000 FPS
Color space : YUV
Chroma subsampling : 4:2:0
Bit depth : 8 bits
Scan type : Progressive
Bits/(Pixel*Frame) : 0.122
Stream size : 1.28 GiB (94%)

WWE NXT UK 2021

Audio
ID : 2
Format : AAC LC
Format/Info : Advanced Audio
Codec ID : mp4a-40-2
Duration : 54 min 53 s
Bit rate mode : Constant
Bit rate : 192 kb/s
Channel(s) : 2 channels
Channel layout : L R
Sampling rate : 48.0 kHz
Frame rate : 46.875 FPS (1024 SPF)
Compression mode : Lossy
Stream size : 75.6 MiB (5%)
Default : Yes
Alternate group : 1

Text
ID : 3
Format : Timed Text
Muxing mode : sbtl
Codec ID : tx3g
Duration : 54 min 45 s
Bit rate mode : Variable
Bit rate : 103 b/s
Stream size : 41.4 KiB (0%)
Language : English
Default : Yes
Forced : No
Alternate group : 3

WWE NXT UK 2021

Complete name : WWE.NXT.UK.2021.07.29.1080p.WEB.h264-HEEL.mp4
Format : MPEG-4
Format profile : Base Media
Codec ID : isom
File size : 3.04 GiB
Duration : 54 min 53 s
Overall bit rate mode : Variable
Overall bit rate : 7 923 kb/s

Video
ID : 1
Format : AVC
Format/Info : Advanced Video
Duration : 54 min 53 s
Bit rate : 7 808 kb/s
Width : 1 920 pixels
Height : 1 080 pixels
Display aspect ratio : 16:9
Frame rate mode : Constant
Frame rate : 30.000 FPS
Color space : YUV
Chroma subsampling : 4:2:0
Bit depth : 8 bits
Scan type : Progressive
Bits/(Pixel*Frame) : 0.126
Stream size : 2.96 GiB (97%)

WWE NXT UK 2021

Audio
ID : 2
Format : AAC LC
Format/Info : Advanced Audio
Codec ID : mp4a-40-2
Duration : 54 min 53 s
Bit rate mode : Constant
Bit rate : 192 kb/s
Channel(s) : 2 channels
Channel layout : L R
Sampling rate : 48.0 kHz
Frame rate : 46.875 FPS (1024 SPF)
Compression mode : Lossy
Stream size : 75.6 MiB (2%)
Default : Yes
Alternate group : 1

WWE NXT UK 2021

Text
ID : 3
Format : Timed Text
Muxing mode : sbtl
Codec ID : tx3g
Duration : 54 min 45 s
Bit rate mode : Variable
Bit rate : 103 b/s
Stream size : 41.4 KiB (0%)
Language : English
Default : Yes
Forced : No
Alternate group : 3

WWE NXT UK 2021

 

Complete name : WWE.NXT.UK.2021.07.29.720p.Hi.WEB.h264-HEEL.mp4
Format : MPEG-4
Format profile : Base Media
Codec ID : isom
File size : 1.36 GiB
Duration : 54 min 53 s
Overall bit rate mode : Variable
Overall bit rate : 3 534 kb/s

Video
ID : 1
Format : AVC
Format/Info : Advanced Video
Duration : 54 min 53 s
Bit rate : 3 372 kb/s
Width : 1 280 pixels
Height : 720 pixels
Display aspect ratio : 16:9
Frame rate mode : Constant
Frame rate : 30.000 FPS
Color space : YUV
Chroma subsampling : 4:2:0
Bit depth : 8 bits
Scan type : Progressive
Bits/(Pixel*Frame) : 0.122
Stream size : 1.28 GiB (94%)

WWE NXT UK 2021

Audio
ID : 2
Format : AAC LC
Format/Info : Advanced Audio
Codec ID : mp4a-40-2
Duration : 54 min 53 s
Bit rate mode : Constant
Bit rate : 192 kb/s
Channel(s) : 2 channels
Channel layout : L R
Sampling rate : 48.0 kHz
Frame rate : 46.875 FPS (1024 SPF)
Compression mode : Lossy
Stream size : 75.6 MiB (5%)
Default : Yes
Alternate group : 1

Text
ID : 3
Format : Timed Text
Muxing mode : sbtl
Codec ID : tx3g
Duration : 54 min 45 s
Bit rate mode : Variable
Bit rate : 103 b/s
Stream size : 41.4 KiB (0%)
Language : English
Default : Yes
Forced : No
Alternate group : 3

WWE NXT UK 2021

Complete name : WWE.NXT.UK.2021.07.29.1080p.WEB.h264-HEEL.mp4
Format : MPEG-4
Format profile : Base Media
Codec ID : isom
File size : 3.04 GiB
Duration : 54 min 53 s
Overall bit rate mode : Variable
Overall bit rate : 7 923 kb/s

Video
ID : 1
Format : AVC
Format/Info : Advanced Video
Duration : 54 min 53 s
Bit rate : 7 808 kb/s
Width : 1 920 pixels
Height : 1 080 pixels
Display aspect ratio : 16:9
Frame rate mode : Constant
Frame rate : 30.000 FPS
Color space : YUV
Chroma subsampling : 4:2:0
Bit depth : 8 bits
Scan type : Progressive
Bits/(Pixel*Frame) : 0.126
Stream size : 2.96 GiB (97%)

WWE NXT UK 2021

Audio
ID : 2
Format : AAC LC
Format/Info : Advanced Audio
Codec ID : mp4a-40-2
Duration : 54 min 53 s
Bit rate mode : Constant
Bit rate : 192 kb/s
Channel(s) : 2 channels
Channel layout : L R
Sampling rate : 48.0 kHz
Frame rate : 46.875 FPS (1024 SPF)
Compression mode : Lossy
Stream size : 75.6 MiB (2%)
Default : Yes
Alternate group : 1

WWE NXT UK 2021

Text
ID : 3
Format : Timed Text
Muxing mode : sbtl
Codec ID : tx3g
Duration : 54 min 45 s
Bit rate mode : Variable
Bit rate : 103 b/s
Stream size : 41.4 KiB (0%)
Language : English
Default : Yes
Forced : No
Alternate group : 3

WWE NXT UK 2021

 

Complete name : WWE.NXT.UK.2021.07.29.720p.Hi.WEB.h264-HEEL.mp4
Format : MPEG-4
Format profile : Base Media
Codec ID : isom
File size : 1.36 GiB
Duration : 54 min 53 s
Overall bit rate mode : Variable
Overall bit rate : 3 534 kb/s

Video
ID : 1
Format : AVC
Format/Info : Advanced Video
Duration : 54 min 53 s
Bit rate : 3 372 kb/s
Width : 1 280 pixels
Height : 720 pixels
Display aspect ratio : 16:9
Frame rate mode : Constant
Frame rate : 30.000 FPS
Color space : YUV
Chroma subsampling : 4:2:0
Bit depth : 8 bits
Scan type : Progressive
Bits/(Pixel*Frame) : 0.122
Stream size : 1.28 GiB (94%)

WWE NXT UK 2021

Audio
ID : 2
Format : AAC LC
Format/Info : Advanced Audio
Codec ID : mp4a-40-2
Duration : 54 min 53 s
Bit rate mode : Constant
Bit rate : 192 kb/s
Channel(s) : 2 channels
Channel layout : L R
Sampling rate : 48.0 kHz
Frame rate : 46.875 FPS (1024 SPF)
Compression mode : Lossy
Stream size : 75.6 MiB (5%)
Default : Yes
Alternate group : 1

Text
ID : 3
Format : Timed Text
Muxing mode : sbtl
Codec ID : tx3g
Duration : 54 min 45 s
Bit rate mode : Variable
Bit rate : 103 b/s
Stream size : 41.4 KiB (0%)
Language : English
Default : Yes
Forced : No
Alternate group : 3

WWE NXT UK 2021

Complete name : WWE.NXT.UK.2021.07.29.1080p.WEB.h264-HEEL.mp4
Format : MPEG-4
Format profile : Base Media
Codec ID : isom
File size : 3.04 GiB
Duration : 54 min 53 s
Overall bit rate mode : Variable
Overall bit rate : 7 923 kb/s

Video
ID : 1
Format : AVC
Format/Info : Advanced Video
Duration : 54 min 53 s
Bit rate : 7 808 kb/s
Width : 1 920 pixels
Height : 1 080 pixels
Display aspect ratio : 16:9
Frame rate mode : Constant
Frame rate : 30.000 FPS
Color space : YUV
Chroma subsampling : 4:2:0
Bit depth : 8 bits
Scan type : Progressive
Bits/(Pixel*Frame) : 0.126
Stream size : 2.96 GiB (97%)

WWE NXT UK 2021

Audio
ID : 2
Format : AAC LC
Format/Info : Advanced Audio
Codec ID : mp4a-40-2
Duration : 54 min 53 s
Bit rate mode : Constant
Bit rate : 192 kb/s
Channel(s) : 2 channels
Channel layout : L R
Sampling rate : 48.0 kHz
Frame rate : 46.875 FPS (1024 SPF)
Compression mode : Lossy
Stream size : 75.6 MiB (2%)
Default : Yes
Alternate group : 1

WWE NXT UK 2021

Text
ID : 3
Format : Timed Text
Muxing mode : sbtl
Codec ID : tx3g
Duration : 54 min 45 s
Bit rate mode : Variable
Bit rate : 103 b/s
Stream size : 41.4 KiB (0%)
Language : English
Default : Yes
Forced : No
Alternate group : 3

WWE NXT UK 2021

 

Complete name : WWE.NXT.UK.2021.07.29.720p.Hi.WEB.h264-HEEL.mp4
Format : MPEG-4
Format profile : Base Media
Codec ID : isom
File size : 1.36 GiB
Duration : 54 min 53 s
Overall bit rate mode : Variable
Overall bit rate : 3 534 kb/s

Video
ID : 1
Format : AVC
Format/Info : Advanced Video
Duration : 54 min 53 s
Bit rate : 3 372 kb/s
Width : 1 280 pixels
Height : 720 pixels
Display aspect ratio : 16:9
Frame rate mode : Constant
Frame rate : 30.000 FPS
Color space : YUV
Chroma subsampling : 4:2:0
Bit depth : 8 bits
Scan type : Progressive
Bits/(Pixel*Frame) : 0.122
Stream size : 1.28 GiB (94%)

WWE NXT UK 2021

Audio
ID : 2
Format : AAC LC
Format/Info : Advanced Audio
Codec ID : mp4a-40-2
Duration : 54 min 53 s
Bit rate mode : Constant
Bit rate : 192 kb/s
Channel(s) : 2 channels
Channel layout : L R
Sampling rate : 48.0 kHz
Frame rate : 46.875 FPS (1024 SPF)
Compression mode : Lossy
Stream size : 75.6 MiB (5%)
Default : Yes
Alternate group : 1

Text
ID : 3
Format : Timed Text
Muxing mode : sbtl
Codec ID : tx3g
Duration : 54 min 45 s
Bit rate mode : Variable
Bit rate : 103 b/s
Stream size : 41.4 KiB (0%)
Language : English
Default : Yes
Forced : No
Alternate group : 3

WWE NXT UK 2021

Complete name : WWE.NXT.UK.2021.07.29.1080p.WEB.h264-HEEL.mp4
Format : MPEG-4
Format profile : Base Media
Codec ID : isom
File size : 3.04 GiB
Duration : 54 min 53 s
Overall bit rate mode : Variable
Overall bit rate : 7 923 kb/s

Video
ID : 1
Format : AVC
Format/Info : Advanced Video
Duration : 54 min 53 s
Bit rate : 7 808 kb/s
Width : 1 920 pixels
Height : 1 080 pixels
Display aspect ratio : 16:9
Frame rate mode : Constant
Frame rate : 30.000 FPS
Color space : YUV
Chroma subsampling : 4:2:0
Bit depth : 8 bits
Scan type : Progressive
Bits/(Pixel*Frame) : 0.126
Stream size : 2.96 GiB (97%)

WWE NXT UK 2021

Audio
ID : 2
Format : AAC LC
Format/Info : Advanced Audio
Codec ID : mp4a-40-2
Duration : 54 min 53 s
Bit rate mode : Constant
Bit rate : 192 kb/s
Channel(s) : 2 channels
Channel layout : L R
Sampling rate : 48.0 kHz
Frame rate : 46.875 FPS (1024 SPF)
Compression mode : Lossy
Stream size : 75.6 MiB (2%)
Default : Yes
Alternate group : 1

WWE NXT UK 2021

Text
ID : 3
Format : Timed Text
Muxing mode : sbtl
Codec ID : tx3g
Duration : 54 min 45 s
Bit rate mode : Variable
Bit rate : 103 b/s
Stream size : 41.4 KiB (0%)
Language : English
Default : Yes
Forced : No
Alternate group : 3

WWE NXT UK 2021

 

Complete name : WWE.NXT.UK.2021.07.29.720p.Hi.WEB.h264-HEEL.mp4
Format : MPEG-4
Format profile : Base Media
Codec ID : isom
File size : 1.36 GiB
Duration : 54 min 53 s
Overall bit rate mode : Variable
Overall bit rate : 3 534 kb/s

Video
ID : 1
Format : AVC
Format/Info : Advanced Video
Duration : 54 min 53 s
Bit rate : 3 372 kb/s
Width : 1 280 pixels
Height : 720 pixels
Display aspect ratio : 16:9
Frame rate mode : Constant
Frame rate : 30.000 FPS
Color space : YUV
Chroma subsampling : 4:2:0
Bit depth : 8 bits
Scan type : Progressive
Bits/(Pixel*Frame) : 0.122
Stream size : 1.28 GiB (94%)

WWE NXT UK 2021

Audio
ID : 2
Format : AAC LC
Format/Info : Advanced Audio
Codec ID : mp4a-40-2
Duration : 54 min 53 s
Bit rate mode : Constant
Bit rate : 192 kb/s
Channel(s) : 2 channels
Channel layout : L R
Sampling rate : 48.0 kHz
Frame rate : 46.875 FPS (1024 SPF)
Compression mode : Lossy
Stream size : 75.6 MiB (5%)
Default : Yes
Alternate group : 1

Text
ID : 3
Format : Timed Text
Muxing mode : sbtl
Codec ID : tx3g
Duration : 54 min 45 s
Bit rate mode : Variable
Bit rate : 103 b/s
Stream size : 41.4 KiB (0%)
Language : English
Default : Yes
Forced : No
Alternate group : 3

WWE NXT UK 2021

Complete name : WWE.NXT.UK.2021.07.29.1080p.WEB.h264-HEEL.mp4
Format : MPEG-4
Format profile : Base Media
Codec ID : isom
File size : 3.04 GiB
Duration : 54 min 53 s
Overall bit rate mode : Variable
Overall bit rate : 7 923 kb/s

Video
ID : 1
Format : AVC
Format/Info : Advanced Video
Duration : 54 min 53 s
Bit rate : 7 808 kb/s
Width : 1 920 pixels
Height : 1 080 pixels
Display aspect ratio : 16:9
Frame rate mode : Constant
Frame rate : 30.000 FPS
Color space : YUV
Chroma subsampling : 4:2:0
Bit depth : 8 bits
Scan type : Progressive
Bits/(Pixel*Frame) : 0.126
Stream size : 2.96 GiB (97%)

WWE NXT UK 2021

Audio
ID : 2
Format : AAC LC
Format/Info : Advanced Audio
Codec ID : mp4a-40-2
Duration : 54 min 53 s
Bit rate mode : Constant
Bit rate : 192 kb/s
Channel(s) : 2 channels
Channel layout : L R
Sampling rate : 48.0 kHz
Frame rate : 46.875 FPS (1024 SPF)
Compression mode : Lossy
Stream size : 75.6 MiB (2%)
Default : Yes
Alternate group : 1

WWE NXT UK 2021

Text
ID : 3
Format : Timed Text
Muxing mode : sbtl
Codec ID : tx3g
Duration : 54 min 45 s
Bit rate mode : Variable
Bit rate : 103 b/s
Stream size : 41.4 KiB (0%)
Language : English
Default : Yes
Forced : No
Alternate group : 3

WWE NXT UK 2021

 

Complete name : WWE.NXT.UK.2021.07.29.720p.Hi.WEB.h264-HEEL.mp4
Format : MPEG-4
Format profile : Base Media
Codec ID : isom
File size : 1.36 GiB
Duration : 54 min 53 s
Overall bit rate mode : Variable
Overall bit rate : 3 534 kb/s

Video
ID : 1
Format : AVC
Format/Info : Advanced Video
Duration : 54 min 53 s
Bit rate : 3 372 kb/s
Width : 1 280 pixels
Height : 720 pixels
Display aspect ratio : 16:9
Frame rate mode : Constant
Frame rate : 30.000 FPS
Color space : YUV
Chroma subsampling : 4:2:0
Bit depth : 8 bits
Scan type : Progressive
Bits/(Pixel*Frame) : 0.122
Stream size : 1.28 GiB (94%)

WWE NXT UK 2021

Audio
ID : 2
Format : AAC LC
Format/Info : Advanced Audio
Codec ID : mp4a-40-2
Duration : 54 min 53 s
Bit rate mode : Constant
Bit rate : 192 kb/s
Channel(s) : 2 channels
Channel layout : L R
Sampling rate : 48.0 kHz
Frame rate : 46.875 FPS (1024 SPF)
Compression mode : Lossy
Stream size : 75.6 MiB (5%)
Default : Yes
Alternate group : 1

Text
ID : 3
Format : Timed Text
Muxing mode : sbtl
Codec ID : tx3g
Duration : 54 min 45 s
Bit rate mode : Variable
Bit rate : 103 b/s
Stream size : 41.4 KiB (0%)
Language : English
Default : Yes
Forced : No
Alternate group : 3

WWE NXT UK 2021

Complete name : WWE.NXT.UK.2021.07.29.1080p.WEB.h264-HEEL.mp4
Format : MPEG-4
Format profile : Base Media
Codec ID : isom
File size : 3.04 GiB
Duration : 54 min 53 s
Overall bit rate mode : Variable
Overall bit rate : 7 923 kb/s

Video
ID : 1
Format : AVC
Format/Info : Advanced Video
Duration : 54 min 53 s
Bit rate : 7 808 kb/s
Width : 1 920 pixels
Height : 1 080 pixels
Display aspect ratio : 16:9
Frame rate mode : Constant
Frame rate : 30.000 FPS
Color space : YUV
Chroma subsampling : 4:2:0
Bit depth : 8 bits
Scan type : Progressive
Bits/(Pixel*Frame) : 0.126
Stream size : 2.96 GiB (97%)

WWE NXT UK 2021

Audio
ID : 2
Format : AAC LC
Format/Info : Advanced Audio
Codec ID : mp4a-40-2
Duration : 54 min 53 s
Bit rate mode : Constant
Bit rate : 192 kb/s
Channel(s) : 2 channels
Channel layout : L R
Sampling rate : 48.0 kHz
Frame rate : 46.875 FPS (1024 SPF)
Compression mode : Lossy
Stream size : 75.6 MiB (2%)
Default : Yes
Alternate group : 1

WWE NXT UK 2021

Text
ID : 3
Format : Timed Text
Muxing mode : sbtl
Codec ID : tx3g
Duration : 54 min 45 s
Bit rate mode : Variable
Bit rate : 103 b/s
Stream size : 41.4 KiB (0%)
Language : English
Default : Yes
Forced : No
Alternate group : 3

WWE NXT UK 2021

 

Complete name : WWE.NXT.UK.2021.07.29.720p.Hi.WEB.h264-HEEL.mp4
Format : MPEG-4
Format profile : Base Media
Codec ID : isom
File size : 1.36 GiB
Duration : 54 min 53 s
Overall bit rate mode : Variable
Overall bit rate : 3 534 kb/s

Video
ID : 1
Format : AVC
Format/Info : Advanced Video
Duration : 54 min 53 s
Bit rate : 3 372 kb/s
Width : 1 280 pixels
Height : 720 pixels
Display aspect ratio : 16:9
Frame rate mode : Constant
Frame rate : 30.000 FPS
Color space : YUV
Chroma subsampling : 4:2:0
Bit depth : 8 bits
Scan type : Progressive
Bits/(Pixel*Frame) : 0.122
Stream size : 1.28 GiB (94%)

WWE NXT UK 2021

Audio
ID : 2
Format : AAC LC
Format/Info : Advanced Audio
Codec ID : mp4a-40-2
Duration : 54 min 53 s
Bit rate mode : Constant
Bit rate : 192 kb/s
Channel(s) : 2 channels
Channel layout : L R
Sampling rate : 48.0 kHz
Frame rate : 46.875 FPS (1024 SPF)
Compression mode : Lossy
Stream size : 75.6 MiB (5%)
Default : Yes
Alternate group : 1

Text
ID : 3
Format : Timed Text
Muxing mode : sbtl
Codec ID : tx3g
Duration : 54 min 45 s
Bit rate mode : Variable
Bit rate : 103 b/s
Stream size : 41.4 KiB (0%)
Language : English
Default : Yes
Forced : No
Alternate group : 3

WWE NXT UK 2021

Complete name : WWE.NXT.UK.2021.07.29.1080p.WEB.h264-HEEL.mp4
Format : MPEG-4
Format profile : Base Media
Codec ID : isom
File size : 3.04 GiB
Duration : 54 min 53 s
Overall bit rate mode : Variable
Overall bit rate : 7 923 kb/s

Video
ID : 1
Format : AVC
Format/Info : Advanced Video
Duration : 54 min 53 s
Bit rate : 7 808 kb/s
Width : 1 920 pixels
Height : 1 080 pixels
Display aspect ratio : 16:9
Frame rate mode : Constant
Frame rate : 30.000 FPS
Color space : YUV
Chroma subsampling : 4:2:0
Bit depth : 8 bits
Scan type : Progressive
Bits/(Pixel*Frame) : 0.126
Stream size : 2.96 GiB (97%)

WWE NXT UK 2021

Audio
ID : 2
Format : AAC LC
Format/Info : Advanced Audio
Codec ID : mp4a-40-2
Duration : 54 min 53 s
Bit rate mode : Constant
Bit rate : 192 kb/s
Channel(s) : 2 channels
Channel layout : L R
Sampling rate : 48.0 kHz
Frame rate : 46.875 FPS (1024 SPF)
Compression mode : Lossy
Stream size : 75.6 MiB (2%)
Default : Yes
Alternate group : 1

WWE NXT UK 2021

Text
ID : 3
Format : Timed Text
Muxing mode : sbtl
Codec ID : tx3g
Duration : 54 min 45 s
Bit rate mode : Variable
Bit rate : 103 b/s
Stream size : 41.4 KiB (0%)
Language : English
Default : Yes
Forced : No
Alternate group : 3

WWE NXT UK 2021

 

Complete name : WWE.NXT.UK.2021.07.29.720p.Hi.WEB.h264-HEEL.mp4
Format : MPEG-4
Format profile : Base Media
Codec ID : isom
File size : 1.36 GiB
Duration : 54 min 53 s
Overall bit rate mode : Variable
Overall bit rate : 3 534 kb/s

Video
ID : 1
Format : AVC
Format/Info : Advanced Video
Duration : 54 min 53 s
Bit rate : 3 372 kb/s
Width : 1 280 pixels
Height : 720 pixels
Display aspect ratio : 16:9
Frame rate mode : Constant
Frame rate : 30.000 FPS
Color space : YUV
Chroma subsampling : 4:2:0
Bit depth : 8 bits
Scan type : Progressive
Bits/(Pixel*Frame) : 0.122
Stream size : 1.28 GiB (94%)

WWE NXT UK 2021

Audio
ID : 2
Format : AAC LC
Format/Info : Advanced Audio
Codec ID : mp4a-40-2
Duration : 54 min 53 s
Bit rate mode : Constant
Bit rate : 192 kb/s
Channel(s) : 2 channels
Channel layout : L R
Sampling rate : 48.0 kHz
Frame rate : 46.875 FPS (1024 SPF)
Compression mode : Lossy
Stream size : 75.6 MiB (5%)
Default : Yes
Alternate group : 1

Text
ID : 3
Format : Timed Text
Muxing mode : sbtl
Codec ID : tx3g
Duration : 54 min 45 s
Bit rate mode : Variable
Bit rate : 103 b/s
Stream size : 41.4 KiB (0%)
Language : English
Default : Yes
Forced : No
Alternate group : 3

WWE NXT UK 2021

Complete name : WWE.NXT.UK.2021.07.29.1080p.WEB.h264-HEEL.mp4
Format : MPEG-4
Format profile : Base Media
Codec ID : isom
File size : 3.04 GiB
Duration : 54 min 53 s
Overall bit rate mode : Variable
Overall bit rate : 7 923 kb/s

Video
ID : 1
Format : AVC
Format/Info : Advanced Video
Duration : 54 min 53 s
Bit rate : 7 808 kb/s
Width : 1 920 pixels
Height : 1 080 pixels
Display aspect ratio : 16:9
Frame rate mode : Constant
Frame rate : 30.000 FPS
Color space : YUV
Chroma subsampling : 4:2:0
Bit depth : 8 bits
Scan type : Progressive
Bits/(Pixel*Frame) : 0.126
Stream size : 2.96 GiB (97%)

WWE NXT UK 2021

Audio
ID : 2
Format : AAC LC
Format/Info : Advanced Audio
Codec ID : mp4a-40-2
Duration : 54 min 53 s
Bit rate mode : Constant
Bit rate : 192 kb/s
Channel(s) : 2 channels
Channel layout : L R
Sampling rate : 48.0 kHz
Frame rate : 46.875 FPS (1024 SPF)
Compression mode : Lossy
Stream size : 75.6 MiB (2%)
Default : Yes
Alternate group : 1

WWE NXT UK 2021

Text
ID : 3
Format : Timed Text
Muxing mode : sbtl
Codec ID : tx3g
Duration : 54 min 45 s
Bit rate mode : Variable
Bit rate : 103 b/s
Stream size : 41.4 KiB (0%)
Language : English
Default : Yes
Forced : No
Alternate group : 3

WWE NXT UK 2021

 

[collapse]

 

 

https://dx-tv.com/

Leave a Reply

Your email address will not be published. Required fields are marked *

This site uses Akismet to reduce spam. Learn how your comment data is processed.