WWE NXT UK 2021 01 28 1080p DX-TV

WWE NXT UK

WWE NXT UK 2021 01 28 720p/ 1080p DX-TV

WWE NXT UK 2021 01 28

 WWE RAW

 

Download Links with premium High Speed   

 

 

dropapk.to

http://shrt10.com/HzQ6AmS2X
http://shrt10.com/dP1mXLm

 

 

nitroflare.com

http://shrt10.com/Siov3
http://shrt10.com/ehX3fb

 

 

rapidgator.net

http://shrt10.com/FckTG
http://shrt10.com/MgrwYg

 

 

uploaded.net

http://shrt10.com/qDhuzoJv
http://shrt10.com/2F9QTUZzj

 

 

 

Watch WWE NXT UK online

 

Server 1

 

 

 

 

WWE NXT UK

 

 

 

 

Server-2

 

 

 

 

watch now

 

 

Uploaded By Site DX-TV.com

 

 

Complete name : WWE.NXT.UK.2021.01.28.720p.Hi.WEB.h264-HEEL.mp4
Format : MPEG-4
Format profile : Base Media
Codec ID : isom
File size : 1.46 GiB
Duration : 59 min 4 s
Overall bit rate mode : Variable
Overall bit rate : 3 542 kb/s
Writing application : Lavf58.32.104

WWE NXT UK

Video
ID : 1
Format : AVC
Format/Info : Advanced Video
Duration : 59 min 4 s
Bit rate : 3 372 kb/s
Width : 1 280 pixels
Height : 720 pixels
Display aspect ratio : 16:9
Frame rate mode : Constant
Frame rate : 30.000 FPS
Color space : YUV
Chroma subsampling : 4:2:0
Bit depth : 8 bits
Scan type : Progressive
Bits/(Pixel*Frame) : 0.122
Stream size : 1.38 GiB (94%)

WWE NXT UK

Audio
ID : 2
Format : AAC LC
Format/Info : Advanced Audio
Codec ID : mp4a-40-2
Duration : 59 min 4 s
Bit rate mode : Variable
Bit rate : 192 kb/s
Maximum bit rate : 423 kb/s
Channel(s) : 2 channels
Channel layout : L R
Sampling rate : 48.0 kHz
Frame rate : 46.875 FPS
Compression mode : Lossy
Stream size : 81.3 MiB (5%)
Default : Yes
Alternate group : 1

WWE NXT UK

Text
ID : 3
Format : Timed Text
Muxing mode : sbtl
Codec ID : tx3g
Duration : 59 min 3 s
Bit rate mode : Variable
Bit rate : 106 b/s
Stream size : 45.8 KiB
Language : English
Default : Yes
Forced : No
Alternate group : 3

Complete name : WWE.NXT.UK.2021.01.28.1080p.WEB.h264-HEEL.mp4
Format : MPEG-4
Format profile : Base Media
Codec ID : isom
File size : 3.27 GiB
Duration : 59 min 4 s
Overall bit rate mode : Variable
Overall bit rate : 7 936 kb/s
Writing application : Lavf58.32.104

Video
ID : 1
Format : AVC
Format/Info : Advanced Video
Duration : 59 min 4 s
Bit rate : 7 808 kb/s
Width : 1 920 pixels
Height : 1 080 pixels
Display aspect ratio : 16:9
Frame rate mode : Constant
Frame rate : 30.000 FPS
Color space : YUV
Chroma subsampling : 4:2:0
Bit depth : 8 bits
Scan type : Progressive
Bits/(Pixel*Frame) : 0.126
Stream size : 3.19 GiB (97%)

WWE NXT UK

Audio
ID : 2
Format : AAC LC
Format/Info : Advanced Audio
Codec ID : mp4a-40-2
Duration : 59 min 4 s
Bit rate mode : Variable
Bit rate : 192 kb/s
Maximum bit rate : 423 kb/s
Channel(s) : 2 channels
Channel layout : L R
Sampling rate : 48.0 kHz
Frame rate : 46.875 FPS (1024 SPF)
Compression mode : Lossy
Stream size : 81.3 MiB (2%)
Default : Yes
Alternate group : 1

Text
ID : 3
Format : Timed Text
Muxing mode : sbtl
Codec ID : tx3g
Duration : 59 min 3 s
Bit rate mode : Variable
Bit rate : 106 b/s
Stream size : 45.8 KiB (0%)
Language : English
Default : Yes
Forced : No
Alternate group : 3

 

 

https://dx-tv.com/

You May Also Like

Leave a Reply

Your email address will not be published. Required fields are marked *

This site uses Akismet to reduce spam. Learn how your comment data is processed.