WWE NXT UK 2020 02 20 720p

Watch WWE NXT UK 2020 02 20 720p DX-TV

 

WWE NXT UK

 

 wwe nxt

 

 

 

 

WWE NXT UK 2020 02 20 720p

 

 

 

Complete name : WWE.NXT.UK.2020.02.20.720p.WEB.h264-HEEL.mp4
Format : MPEG-4
Format profile : Base Media
Codec ID : isom
File size : 1.82 GiB
Duration : 57 min 48 s
Overall bit rate mode : Variable
Overall bit rate : 4 510 kb/s
Writing application : Lavf58.32.104

Video
ID : 1
Format : AVC
Duration : 57 min 48 s
Bit rate mode : Variable
Bit rate : 4 376 kb/s
Maximum bit rate : 4 809 kb/s
Width : 1 280 pixels
Height : 720 pixels
Display aspect ratio : 16:9
Frame rate mode : Variable
Frame rate : 30.000 FPS
Minimum frame rate : 29.412 FPS
Maximum frame rate : 30.303 FPS
Standard : NTSC
Color space : YUV
Chroma subsampling : 4:2:0
Bit depth : 8 bits
Scan type : Progressive
Bits/(Pixel*Frame) : 0.158
Stream size : 1.77 GiB (97%)
Color range : Limited
Color primaries : BT.709
Transfer characteristics : BT.709
Matrix coefficients : BT.709
Codec configuration box : avcC

Audio
ID : 2
Format : AAC LC
Codec ID : mp4a-40-2
Duration : 57 min 47 s
Bit rate mode : Constant
Bit rate : 125 kb/s
Channel(s) : 2 channels
Channel layout : L R
Sampling rate : 48.0 kHz
Frame rate : 46.875 FPS (1024 SPF)
Compression mode : Lossy
Stream size : 51.9 MiB (3%)
Default : Yes
Alternate group : 1

Text #1
ID : 1-CC1
Format : EIA-608
Duration : 57 min 48 s
Bit rate mode : Constant
Stream size : 0.00 Byte (0%)
CaptionServiceName : CC1

Text #2
ID : 1-CC3
Format : EIA-608
Duration : 57 min 48 s
Bit rate mode : Constant
Stream size : 0.00 Byte (0%)
CaptionServiceName : CC3

Text #3
ID : 1-1
Format : EIA-708
Duration : 57 min 48 s
Bit rate mode : Constant
Stream size : 0.00 Byte (0%)

Text #4
ID : 1-2
Format : EIA-708
Duration : 57 min 48 s
Bit rate mode : Constant
Stream size : 0.00 Byte (0%)

 

 

 

Watch online

 

 

Server 1

 

 

watch now

 

 

 

WWE NXT UK 2020 02 20 720p

 

 

Uploaded By Site DX-TV.com

 

1fichier.comĀ 

 

 

DDL.to

 

 

rockfile.co

 

 

 

Download with premium account LinksĀ 

 

 

alfafile.net

 

 

nitroflare.com

 

 

rapidgator.net

 

 

uploadgig.com

 

 

 

dx-tv.com

 

You May Also Like