WWE NXT UK 2020 02 13 720p

Watch WWE NXT UK 2020 02 13 720p DX-TV

 

WWE NXT 2020

 

 WWE NXT

 

 

 

 

WWE NXT UK 2020 02 13 720p

 

Complete name : WWE.NXT.UK.2020.02.13.720p.Hi.WEB.h264-HEEL.mp4
Format : MPEG-4
Format profile : Base Media
Codec ID : isom
File size : 1.28 GiB
Duration : 51 min 50 s
Overall bit rate mode : WWE NXT
Overall bit rate : 3 542 kb/s

Video
ID : 1
Format : AVC
Duration : 51 min 50 s
Bit rate : 3 372 kb/s
Width : 1 280 pixels
Height : 720 pixels
Display aspect ratio : 16:9
Frame rate mode : Constant
Frame rate : 30.000 FPS
Color space : YUV
Chroma subsampling : 4:2:0
Bit depth : 8 bits
Scan type : Progressive
Bits/(Pixel*Frame) : 0.122
Stream size : 1.21 GiB (94%)

Audio
ID : 2
Format : AAC LC
Codec ID : mp4a-40-2
Duration : 51 min 50 s
Bit rate mode : Variable
Bit rate : 192 kb/s
Maximum bit rate : 423 kb/s
Channel(s) : 2 channels
Channel layout : L R
Sampling rate : 48.0 kHz
Frame rate : 46.875 FPS (1024 SPF)
Compression mode : Lossy
Stream size : 71.3 MiB (5%)
Default : Yes
Alternate group : 1

 

 

Watch online

 

 

Server 1

 

 

 

 

 

 

 

Server 2

 

 

 

 

 

 

 

 

WWE NXT UK 2020 02 13 720p

 

 

 

Uploaded By Site DX-TV.com

 

 

 

1fichier.com 

 

 

DDL.to

 

 

earn4files.com

 

 

rockfile.co

 

 

 

Download with premium account Links 

 

 

Keep2Share

 

 

nitroflare.com

 

 

rapidgator.net

 

 

uploadgig.com

 

WWE

 

dx-tv.com

 

Leave a Reply

Your email address will not be published. Required fields are marked *

This site uses Akismet to reduce spam. Learn how your comment data is processed.