WWE NXT UK 2020 02 13 1080p

Watch WWE NXT UK 2020 02 13 1080p DX-TV

 

WWE NXT UK 2020

 

 WWE NXT

 

 

 

 

WWE NXT UK 2020 02 13 1080p

 

 

General
Complete name : WWE.NXT.UK.2020.02.13.1080p.WEB.h264-HEEL.mp4
Format : MPEG-4
Format profile : Base Media
Codec ID : isom
File size : 2.88 GiB
Duration : 51 min 50 s
Overall bit rate mode : Variable
Overall bit rate : 7 944 kb/s
Writing application : Lavf58.32.104

Video
ID : 1
Format : AVC
Duration : 51 min 50 s
Bit rate : 7 808 kb/s
Width : 1 920 pixels
Height : 1 080 pixels
Display aspect ratio : 16:9
Frame rate mode : Constant
Frame rate : 30.000 FPS
Color space : YUV
Chroma subsampling : 4:2:0
Bit depth : 8 bits
Scan type : Progressive
Bits/(Pixel*Frame) : 0.126
Stream size : 2.80 GiB (97%)

Audio
ID : 2
Format : AAC LC
Codec ID : mp4a-40-2
Duration : 51 min 50 s
Bit rate mode : Variable
Bit rate : 192 kb/s
Maximum bit rate : 423 kb/s
Channel(s) : 2 channels
Channel layout : L R
Sampling rate : 48.0 kHz
Frame rate : 46.875 FPS (1024 SPF)
Compression mode : Lossy
Stream size : 71.3 MiB (2%)
Default : Yes
WWE NXT

 

 

Watch online

 

 

Server 1

 

 

 

 

 

 

Server 2

 

 

 

 

 

 

WWE NXT UK 2020 02 13 1080p

 

 

 

Uploaded By Site DX-TV.com

 

 

1fichier.com 

https://shrt10.com/lSo8yPR3
https://shrt10.com/zvyPbG

 

DDL.to

 

https://shrt10.com/bkAUHUp
https://shrt10.com/Yv7YzVV

 

earn4files.com

https://shrt10.com/fnzAL
https://shrt10.com/879ioqj

 

rockfile.co

https://shrt10.com/R7QcsIo4s
https://shrt10.com/8lVCEVQN

 

 

Download with premium account Links 

 

 

Keep2Share

 

 

nitroflare.com

 

 

rapidgator.net

 

 

uploadgig.com

 

 

 

dx-tv.com

 

Leave a Reply

Your email address will not be published. Required fields are marked *

This site uses Akismet to reduce spam. Learn how your comment data is processed.