WWE NXT UK 2018 11 07 E05 720p WEB HEEL

WWE NXT UK 2018 11 07 E05 720p WEB HEEL

 

 

 

 


 

 

 

 

dx-tv.com

 

 

 

 

 

 

 
Complete name : WWE.NXT.UK.2018.11.07.E05.720p.WEB.h264-HEEL.mp4
Format : MPEG-4
Format profile : Base Media
File size : 1.81 GiB
Duration : 58 min 31 s
Overall bit rate mode : Variable
Overall bit rate : 4 439 kb/s
Writing application : Lavf58.2.103

Video
ID : 1
Format : AVC
Format/Info : Advanced Video Codec
Codec ID/Info : Advanced Video Coding
Duration : 58 min 31 s
Bit rate mode : Variable
Bit rate : 4 336 kb/s
Maximum bit rate : 5 500 kb/s
Width : 1 280 pixels
Height : 720 pixels
Display aspect ratio : 16:9
Frame rate mode : Constant
Frame rate : 29.970 (30000/1001) FPS
Color space : YUV
Chroma subsampling : 4:2:0
Bit depth : 8 bits
Scan type : Progressive
Bits/(Pixel*Frame) : 0.157
Stream size : 1.77 GiB (98%)

Audio
ID : 2
Format : AAC
Format/Info : Advanced Audio Codec
Format profile : LC
Codec ID : mp4a-40-2
Duration : 58 min 31 s
Bit rate mode : Variable
Bit rate : 93.5 kb/s
Maximum bit rate : 95.6 kb/s
Channel(s) : 2 channels
Channel positions : Front: L R
Sampling rate : 48.0 kHz
Frame rate : 46.875 FPS (1024 SPF)
Compression mode : Lossy
Stream size : 39.1 MiB (2%)
Default : Yes
 

 

 

WWE NXT UK 2018 11 07 E05 720p WEB HEEL

 

 

 

 

 

 

 

 

Uploaded By Site DX-TV.com

 

 

 

open rar file to see this password

 

 

 

 

The password : DX-TV.com

 

 

 

 

Uploaded.net + rapidgator.net

 

 

 

 

 

 
http://shrt10.com/dl83F

 

 

 

 
http://shrt10.com/TGncDs1
 

 

 

 

 

 

 

 

 

 

WWE NXT UK 2018 11 07 E05 720p WEB HEEL

Leave a Reply

This site uses Akismet to reduce spam. Learn how your comment data is processed.