WWE NXT TakeOver Vengeance Day 2021 720p DX-TV

WWE NXT TakeOver Vengeance Day 2021 720p WEB DX-TV

WWE NXT TakeOver Vengeance Day 2021

 WWE NXT TakeOver Vengeance Day 2021

 

 

 

Download Links with High Speed


Dopapk

 

 

Show Links

 

 

Nitroflare

 

 

Show Links

 

http://shrt10.com/6rLlY

 

[collapse]

 

 

Rapidgator

 

 

Show Links

 

http://shrt10.com/7YTeY

 

[collapse]

 

 

Uploaded

 

 

Show Links

 

http://shrt10.com/Jpn6ttOi

 

[collapse]

 

 

Watch WWE NXT TakeOver online

 

Server 1

 

 

 

 

WWE NXT TakeOver

 

 

 

 

Server-2

 

 

 

 

watch now

 

 

Uploaded By Site DX-TV.com

 

 

Show Info This Show

 

 
Complete name : WWE.NXT.TakeOver.Vengeance.Day.2021.720p.WEB H264 DX-TV.com.mkv
Format : Matroska
Format version : Version 4
File size : 3.94 GiB
Duration : 3 h 2 min
Overall bit rate mode : Variable
Overall bit rate : 3 091 kb/s

NXT TakeOver Vengeance

Video
ID : 1
Format : AVC
Format/Info : Advanced Video
Duration : 3 h 2 min
Bit rate mode : Variable
Bit rate : 2 953 kb/s
Maximum bit rate : 3 159 kb/s
Width : 1 280 pixels
Height : 720 pixels
Display aspect ratio : 16:9
Frame rate mode : Variable
Frame rate : 30.705 FPS
Original frame rate : 30.000 FPS
Standard : NTSC
Color space : YUV
Chroma subsampling : 4:2:0
Bit depth : 8 bits
Scan type : Progressive
Bits/(Pixel*Frame) : 0.104
Stream size : 3.85 GiB (98%)
Default : Yes
Forced : No
Color range : Limited
Color primaries : BT.709
Transfer characteristics : BT.709
Matrix coefficients : BT.709

NXT TakeOver Vengeance

Audio
ID : 2
Format : AAC LC
Codec ID : A_AAC-2
Duration : 3 h 2 min
Bit rate : 125 kb/s
Channel(s) : 2 channels
Channel layout : L R
Sampling rate : 48.0 kHz
Frame rate : 46.875 FPS
Compression mode : Lossy
Delay relative to video : 17 ms
Stream size : 167 MiB
Language : day
Default : Yes
Forced : No

NXT TakeOver Vengeance

Audio
ID : 2
Format : AAC LC
Codec ID : A_AAC-2
Duration : 3 h 2 min
Bit rate : 125 kb/s
Channel(s) : 2 channels
Channel layout : L R
Sampling rate : 48.0 kHz
Frame rate : 46.875 FPS
Compression mode : Lossy
Delay relative to video : 17 ms
Stream size : 167 MiB
Language : day
Default : Yes
Forced : No

NXT TakeOver Vengeance

Audio
ID : 2
Format : AAC LC
Codec ID : A_AAC-2
Duration : 3 h 2 min
Bit rate : 125 kb/s
Channel(s) : 2 channels
Channel layout : L R
Sampling rate : 48.0 kHz
Frame rate : 46.875 FPS
Compression mode : Lossy
Delay relative to video : 17 ms
Stream size : 167 MiB
Language : day
Default : Yes
Forced : No

 

 

[collapse]

 

 

https://dx-tv.com/

1 Comment

Comments are closed.