WWE NXT TakeOver Vengeance Day 2021 1080p DX-TV

WWE NXT TakeOver Vengeance Day 2021 720p/ 1080p HDTV Star DX-TV

WWE NXT TakeOver Vengeance Day

 WWE NXT TakeOver Vengeance Day

 

 

 

Download Links with High Speed


 

Dopapk

 

 

Show Links

 

http://shrt10.com/fFo4og
http://shrt10.com/u4qgdZF
http://shrt10.com/rOKje83

 

[collapse]

 

 

Nitroflare

 

 

Show Links

 

http://shrt10.com/A3iwA4Go9
http://shrt10.com/b337KqI0
http://shrt10.com/0R4Acl

 

[collapse]

 

 

Rapidgator

 

 

 

 

Uploaded

 

 

Show Links

 

http://shrt10.com/uabG1mVp
http://shrt10.com/DrsS8OUa2

 

[collapse]

 

 

Watch WWE NXT TakeOver Vengeance Day online

 

Server 1

 

 

 

 

NXT TakeOver Vengeance Day

 

 

 

 

Server-2

 

 

 

 

watch now

 

 

Uploaded By Site DX-TV.com

 

 

Show Info This Show

 

 

Complete name : WWE.NXT.TakeOver.Vengeance.Day.2021.HDTV.x264-Star.mp4
Format : MPEG-4
Format profile : Base Media
File size : 1.52 GiB
Duration : 2 h 33 min
Overall bit rate : 1 418 kb/s

NXT TakeOver Vengeance Day

Video
ID : 1
Format : AVC
Format/Info : Advanced Video
Duration : 2 h 33 min
Bit rate : 1 300 kb/s
Width : 720 pixels
Height : 480 pixels
Display aspect ratio : 16:9
Frame rate mode : Constant
Frame rate : 29.970 (30000/1001) FPS
Standard : NTSC
Color space : YUV
Chroma subsampling : 4:2:0
Bit depth : 8 bits
Scan type : Progressive
Bits/(Pixel*Frame) : 0.126
Stream size : 1.39 GiB (91%)
Color range : Limited
Color primaries : BT.709
Transfer characteristics : BT.709
Matrix coefficients : BT.709
Codec configuration box : avc

NXT TakeOver Vengeance Day

Audio
ID : 2
Format : AAC LC Codec Low
Codec ID : mp4a-40-2
Duration : 2 h 33 min
Bit rate mode : Constant
Bit rate : 112 kb/s
Channel(s) : 2 channels
Channel layout : L R
Sampling rate : 48.0 kHz
Frame rate : 46.875 FPS
Compression mode : Lossy
Stream size : 123 MiB (8%)
Title : Stereo
Default : Yes
Alternate group : 1

Complete name : WWE.NXT.TakeOver.Vengeance.Day.2021.1080p.HDTV.x264-Star.mkv
Format : Matroska
Format version : Version 4
File size : 8.69 GiB
Duration : 2 h 33 min
Overall bit rate : 8 118 kb/s

Video
ID : 1
Format : AVC
Format/Info : Advanced Video
Duration : 2 h 33 min
Bit rate : 8 000 kb/s
Width : 1 920 pixels
Height : 1 080 pixels
Display aspect ratio : 16:9
Frame rate mode : Constant
Frame rate : 29.970 (30000/1001) FPS
Color space : YUV
Chroma subsampling : 4:2:0
Bit depth : 8 bits
Scan type : Progressive
Bits/(Pixel*Frame) : 0.129
Stream size : 8.38 GiB (96%)
Forced : No
Color range : Limited
Color primaries : BT.709
Transfer characteristics : BT.709
Matrix coefficients : BT.709

NXT TakeOver Vengeance Day

Audio
ID : 2
Format : AC-3
Format/Info : Audio Coding 3
Commercial name : Dolby Digital
Codec ID : A_AC3
Duration : 2 h 33 min
Bit rate mode : Constant
Bit rate : 128 kb/s
Channel(s) : 2 channels
Channel layout : L R
Sampling rate : 48.0 kHz
Frame rate : 31.250 FPS
Compression mode : Lossy
Delay relative to video : -5 ms
Stream size : 140 MiB (2%)
Title : Stereo
Service kind : Complete Main
Default : Yes
Forced : No

Complete name : WWE.NXT.TakeOver.Vengeance.Day.2021.720p.HDTV.x264-Star.mkv
Format : Matroska
Format version : Version 4
File size : 4.41 GiB
Duration : 2 h 33 min
Overall bit rate : 4 123 kb/s

Video
ID : 1
Format : AVC
Format/Info : Advanced Video
Duration : 2 h 33 min
Bit rate : 4 000 kb/s
Width : 1 280 pixels
Height : 720 pixels
Display aspect ratio : 16:9
Frame rate mode : Constant
Frame rate : 29.970 (30000/1001) FPS
Color space : YUV
Chroma subsampling : 4:2:0
Bit depth : 8 bits
Scan type : Progressive
Bits/(Pixel*Frame) : 0.145
Stream size : 4.19 GiB (95%)
Forced : No
Color range : Limited
Color primaries : BT.709
Transfer characteristics : BT.709
Matrix coefficients : BT.709

NXT TakeOver Vengeance Day

Audio
ID : 2
Format : AC-3
Format/Info : Audio Coding 3
Commercial name : Dolby Digital
Codec ID : A_AC3
Duration : 2 h 33 min
Bit rate mode : Constant
Bit rate : 128 kb/s
Channel(s) : 2 channels
Channel layout : L R
Sampling rate : 48.0 kHz
Frame rate : 31.250 FPS
Compression mode : Lossy
Delay relative to video : -5 ms
Stream size : 140 MiB (3%)
Title : Stereo
Service kind : Complete Main
Default : Yes
Forced : No

 

 

[collapse]

 

 

https://dx-tv.com/