WWE NXT TakeOver Chicago II 2018 WWE Network 720p HDTV Ebi Watch / Download

WWE NXT TakeOver Chicago II 2018 WWE Network 720p HDTV Ebi Watch / Download

 

 

 


 

dx-tv.com

 

 

 

 

Complete name : WWE.NXT.TakeOver.Chicago.II.720p.WWE.Network.HDTV.x264-Ebi.mp4
Format : MPEG-4
Format profile : Base Media / Version 2
Codec ID : mp42
File size : 5.18 GiB
Duration : 2h 37mn
Overall bit rate : 4 713 Kbps
Encoded date : UTC 2018-06-17 03:55:00
Tagged date : UTC 2018-06-17 03:55:00

Video
ID : 1
Format : AVC
Format/Info : Advanced Video Codec
Codec ID : avc1
Codec ID/Info : Advanced Video Coding
Duration : 2h 37mn
Bit rate mode : Variable
Bit rate : 4 500 Kbps
Width : 1 280 pixels
Height : 720 pixels
Display aspect ratio : 16:9
Frame rate mode : Constant
Frame rate : 29.970 fps
Color space : YUV
Chroma subsampling : 4:2:0
Bit depth : 8 bits
Scan type : Progressive
Bits/(Pixel*Frame) : 0.163
Stream size : 4.95 GiB (96%)

Audio
ID : 2
Format : AAC
Format/Info : Advanced Audio Codec
Format profile : LC
Codec ID : 40
Duration : 2h 37mn
Bit rate mode : Variable
Bit rate : 192 Kbps
Channel(s) : 2 channels
Channel positions : Front: L R
Sampling rate : 48.0 KHz
Compression mode : Lossy
Stream size : 216 MiB (4%)
Title : Stereo
Encoded date : UTC 2018-06-17 03:55:00
Tagged date : UTC 2018-06-17 03:55:00

 

 

WWE NXT TakeOver Chicago II 2018 WWE Network 720p HDTV Ebi Watch / Download

 

 

Watch online

 

 

Waiting finish converting video

 

 

Server 1

 

 

 

 

 

 

 

 

 

 

 

 

 

 

 

 

Server 2

 

 

 

 

 

 

 

 

 

 

 

 

 

 

 

 

Uploaded By Site DX-TV.com

 

 

 

open rar file to see this password

 

 

 

 

The password : DX-TV.com

 

 

 

 

Uploaded.net + rapidgator.net

 

 

 

 

 

 
http://shrt10.com/1fDJ

http://shrt10.com/2U93y
 

http://shrt10.com/sxBBChND
 

http://shrt10.com/5aO8
 

 

 

 

 

 

 

WWE NXT TakeOver Chicago II 2018 WWE Network 720p HDTV Ebi Watch / Download