WWE NXT TakeOver Brooklyn IV 2018 08 18 720p WEB HEEL mp4

WWE NXT TakeOver Brooklyn IV 2018 08 18 720p WEB HEEL mp4

 

 

 

 


 

 

 

dx-tv.com

 

 

 

 

 

 

 

 
Complete name : WWE.NXT.TakeOver.Brooklyn.IV.720p.WEB.h264-HEEL.mp4
Format : MPEG-4
Format profile : Base Media
File size : 5.00 GiB
Duration : 2 h 38 min
Overall bit rate mode : Constant
Overall bit rate : 4 506 kb/s
Writing application : Lavf58.2.103

Video
ID : 1
Format : AVC
Format/Info : Advanced Video Codec
Codec ID/Info : Advanced Video Coding
Duration : 2 h 38 min
Duration_FirstFrame : 19 ms
Bit rate mode : Constant
Bit rate : 4 372 kb/s
Width : 1 280 pixels
Height : 720 pixels
Display aspect ratio : 16:9
Frame rate mode : Constant
Frame rate : 29.970 (30000/1001) FPS
Color space : YUV
Chroma subsampling : 4:2:0
Bit depth : 8 bits
Scan type : Progressive
Bits/(Pixel*Frame) : 0.158
Stream size : 4.85 GiB (97%)

Audio
ID : 2
Format : AAC
Format/Info : Advanced Audio Codec
Format profile : LC
Codec ID : mp4a-40-2
Duration : 2 h 38 min
Bit rate mode : Constant
Bit rate : 125 kb/s
Channel(s) : 2 channels
Channel positions : Front: L R
Sampling rate : 48.0 kHz
Frame rate : 46.875 FPS (1024 SPF)
Compression mode : Lossy
Stream size : 143 MiB (3%)
Language : English
Default : Yes
Alternate group : 1

 

 

 

 

WWE NXT TakeOver Brooklyn IV 2018 08 18 720p WEB HEEL mp4

 

 

 

 

Watch online

 

 

Waiting finish converting video

 

 

Server 1

 

 

 

 

 

 

 

 

 

 

 

 

 

 

 

 

 

 

 

 

Server 2

 

 

 

 

 

 

 


 

 

 

 

 

 

Uploaded By Site DX-TV.com

 

 

 

open rar file to see this password

 

 

 

 

The password : DX-TV.com

 

 

 

 

Uploaded.net + rapidgator.net

 

 

 

 

 

http://shrt10.com/5ciul
 

 

 

http://shrt10.com/TNuoijd
 

 

 

http://shrt10.com/HP1dcV

http://shrt10.com/ZpQbR1
 

 

 

 

 

 

WWE NXT TakeOver Brooklyn IV 2018 08 18 720p WEB HEEL mp4