WWE NXT Super Tuesday II 2020 09 08 Free Online

Watch WWE NXT Super Tuesday II 2020 09 08 HDTV NWCHD DX-TV

 

WWE NXT Super Tuesday II 2020 09 08

 

 WWE NXT Super Tuesday II 2020 09 08

 

WWE NXT Super Tuesday II 2020 09 08 Free Online

 

 

 

[su_expand more_text=”Show More Info” less_text=”Close all Info” height=”30″ text_color=”#000000″ link_color=”#e25f8b” link_style=”button” more_icon=”icon: arrow-down” less_icon=”icon: arrow-up”]

 

Complete name : WWE.NXT.Super.Tuesday.II.2020.09.08.HDTV.x264-NWCHD.mp4
Format : MPEG-4
Format profile : Base Media
Codec ID : isom
File size : 1.08 GiB
Duration : 1 h 37 min
Overall bit rate : 1 588 kb/s
Writing application : Lavf58.27

 NXT Super Tuesday II 2020 09 08

Video
ID : 1
Format : AVC
Duration : 1 h 37 min
Bit rate : 1 400 kb/s
Width : 704 pixels
Height : 400 pixels
Display aspect ratio : 16:9
Original display aspect rat : 16:9
Frame rate mode : Variable
rate : 29.970 (30000/1001) FPS
Color space : YUV
Chroma : 4:2:0
Bit depth : 8 bits
Scan type : Progressive
Bits/(Pixel*Frame) : 0.166
Stream size : 968 MiB (87%)
Color primaries : BT.709
Transfer characteristics : BT.709
Matrix coefficients : BT.709
Codec configuration box : avcC

WWE NXT Super Tuesday II 2020 09 08

Audio
ID : 2
Format : AAC LC
Format/Info : Advanced Audio
Codec ID : mp4a-40-2
Duration : 1 h 37 min
Bit rate mode : Constant
Bit rate : 192 kb/s
Channel(s) : 2 channels
Channel layout : L R
Sampling rate : 48.0 kHz
Frame rate : 46.875 FPS (1024 SPF)
Compression mode : Lossy
Stream size : 134 MiB (12%)
Title : Stereo
Language : English
Default : Yes
Alternate group : 1

 NXT Super Tuesday II 2020 09 08

 

Sixty minutes weren’t enough to decide a new NXT Champion thanks to Adam Cole’s miraculous, buzzer-beating final fall on NXT Super Tuesday.

Now Cole will go one-on-one with Finn Bálor for the NXT Title to kick off NXT Super Tuesday II tonight. 

Bálor had seemingly all but clinched his second NXT Championship, striking at the perfect time with .

a Coup de Grace on Tommaso Ciampa and pinning The Blackheart with less than 20 seconds left to take a 2-1-1-1 lead over the other three competitors.

Cole then burst back into the ring, blindsiding The Prince with the Last Shot and pinning him just before time expired to finish in a 2-2 tie.

Following the dead heat conclusion, both men staked their claim to the NXT Title in a tumultuous scene that prompted William Regal’s arrival.

The NXT General Manager ruled immediately that Bálor and Cole — owners of the two longest NXT Title reigns in history.

will face off in a one-fall bout next week to definitively crown an NXT Champion.

Which man will earn the black-and-gold brand’s top prize? Find out on NXT Super Tuesday II tonight at 8/7 C on USA Network!

 

 

 NXT Super Tuesday II 2020 09 08 Free Online

 

 

[/su_expand]

 

 

 

Watch online

 

 

[su_expand more_text=”Open Videos Online” less_text=”Close Videos” height=”0″ text_color=”#0859fe” link_color=”#a74a69″ link_style=”button” more_icon=”icon: play” less_icon=”icon: stop”]

 

 

Server 1

 

 

 

 

watch now

 

 

 

 

Server-2

 

 

 

watch now

 

 

 

 

Server-3

 

 

 

WWE NXT Super Tuesday II 2020 09 08

 

 

 

[/su_expand]
 

 

Uploaded By Site DX-TV.com

 

 

 

Download Links with High Speed   

 

 

[su_expand more_text=”Open Download Links” less_text=”Close all Links” height=”0″ text_color=”#4b9a3e” link_color=”#1b3fa8″ link_style=”button” more_icon=”icon: link” less_icon=”icon: unlink”]
 

Keep2Share

 

 

 

nitroflare.com

 

 

 

rapidgator.net

 

 

 

uploadgig.com

 

 

[/su_expand]
dx-tv.com

 

urlfree.net

Leave a Reply

Your email address will not be published. Required fields are marked *

This site uses Akismet to reduce spam. Learn how your comment data is processed.