WWE NXT November 04 2020 1080p Full Show Free

Watch WWE NXT 04 November 2020 1080p HDTV Star DX-TV

WWE NXT November 04 2020

 

 WWE NXT November 04 2020

WWE NXT November 04 2020 1080p Full Show Free

 

 

The demons of last week’s Haunted House of Terror Match against Dexter Lumis were clearly still haunting Cameron Grimes,

who appeared beyond skittish in his tussle with Kushida.

NXT’s resident Time Splitter took full advantage, exploiting Grimes’ anxiety. 

Kushida’s reversal of an O’Connor roll by Grimes knocked the official out of the ring,

however, leaving no one present to call for the bell as Grimes tapped to Kushida’s vaunted Hoverboard Lock. 

A second referee arrived — one bearing an eerie resemblance to a zombie that stalked The Technical Savage a week earlier .

and Grimes completely lost it. Moments later, Grimes tapped to another hold by Kushida while screaming in terror. 

 NXT November 04 2020

Complete name : WWE.NXT.2020.11.04.1080p.HDTV.x264-Star.mkv
Format : Matroska
Format version : Version 4
File size : 6.31 GiB
Duration : 1 h 28 min
Overall bit rate : 10.2 Mb/s

WWE NXT November 04 2020

Video
ID : 1
Format : AVC
Duration : 1 h 28 min
Bit rate : 10 000 kb/s
Width : 1 920 pixels
Height : 1 080 pixels
aspect ratio : 16:9
Frame rate mode : Constant
Frame rate : 29.970 FPS
Color space : YUV
Chroma sampling : 4:2:0
Bit depth : 8 bits
Scan type : Progressive
Bits/(Pixel*Frame) : 0.161
Stream size : 6.02 GiB
Color range : Limited
Color primaries : BT.709
Transfer characteristics : BT.709
Matrix coefficients : BT.709

WWE NXT November 04 2020

Audio
ID : 2
Format : AC-3
Format/Info : Audio Coding 3
Commercial name : Dolby Digital
Codec ID : A_AC3
Duration : 1 h 28 min
Bit rate mode : Constant
Bit rate : 256 kb/s
Channel(s) : 2 channels
Channel layout : L R
Sampling rate : 48.0 kHz
Frame rate : 31.250 FPS
Compression mode : Lossy
Stream size : 161 MiB (2%)
Title : Stereo
Service kind : Complete Main
Default : Yes
Forced : No

 

 NXT November 04 2020 1080p Full Show Free

 

 

Watch online

 

Server 1

 

 

 

 

 

 

 

 

Server-2

 

 

 

 

 

 

 

Uploaded By Site DX-TV.com

 

 

Download Links with premium High Speed   

 

 

 

 

dropapk.to

 

 

 

nitroflare.com

 

 

 

rapidgator.net

 

 

 

uploadgig.com

 

 

 

 

 

dx-tv.com

 

urlfree.net

Leave a Reply

Your email address will not be published. Required fields are marked *

This site uses Akismet to reduce spam. Learn how your comment data is processed.