WWE NXT Full Show Online 2020 10 14

Watch WWE NXT Full Show Online 2020 10 14 DX-TV

 

WWE NXT Full Show Online

 

WWE NXT Full Show Online
 


 

 

WWE NXT Full Show Online 2020 10 14

 

 

Complete name : WWE.NxT.2020.10.14.WEB.h264-DaShield.mp4
Format : MPEG-4
Format profile : Base Media
Codec ID : mp42
File size : 1.03 GiB
Duration : 1 h 36 min
Overall bit rate mode : Variable
Overall bit rate : 1 535 kb/s

WWE NXT Full Show Online

Video
ID : 1
Format : AVC
Duration : 1 h 36 min
Bit rate : 1 400 kb/s
Width : 704 pixels
Height : 396 pixels
Display aspect ratio : 16:9
Frame rate mode : Constant
Frame rate : 29.970 FPS
Color space : YUV
Chroma sampling : 4:2:0
Bit depth : 8 bits
Scan type : Progressive
Bits/(Pixel*Frame) : 0.168
Stream size : 963 MiB (91%)
Color range : Limited
Color primaries : BT.709
Transfer characteristics : BT.709
Matrix coefficients : BT.709
Codec configuration box : avcC

 NXT Full Show Online

Audio
ID : 2
Format : AAC LC
Format/Info : Advanced Audio
Codec ID : mp4a-40-2
Duration : 1 h 36 min
Bit rate mode : Variable
Bit rate : 128 kb/s
Channel(s) : 2 channels
Channel layout : L R
Sampling rate : 48.0 kHz
Frame rate : 46.875 FPS (1024 SPF)
Compression mode : Lossy
Stream size : 88.0 MiB (8%)
Title : Stereo / Stereo
Default : Yes
Alternate group : 1

WWE NXT Full Show Online

The Undisputed ERA def. Danny Burch & Oney Lorcan to become

No. 1 Contenders to the NXT Tag Team Titles

It’s been a turbulent few weeks for The Undisputed ERA, but Roderick Strong & Bobby Fish steered the most dominant faction in NXT history back on track. The UE prevailed after Strong connected with a massive running knee before they locked eyes with NXT Tag Team Champions Breezango, who were keeping a close eye on the bout.

WWE NXT Full Show Online

Jake Atlas def. Ashante “Thee” Adonis

Jake Atlas and Ashante “Thee” Adonis battled in a highly competitive bout, but Atlas one-upped his opponent when he caught him off-guard with a small package for the win. Afterward, they were ambushed by Legado del Fantasma, who retreated after Isaiah ‘Swerve” Scott arrived with steel chairs to even the odds.

 

 NXT Full Show Online 2020 10 14

 

 

 

 

Watch online

 

 

 

 

 

Server 1

 

 

 

 

watch now

 

 

 

 

Server-2

 

 

 

WWE NXT Full Show Online

 

 

 

 

Server-3

 

 

 

watch now

 

 

 

 

Uploaded By Site DX-TV.com

 

 

 

 

Download Free Links with normal and high Speed [ more 14 hosts ]  

 

 

 

 

http://shrt10.com/3NxZNvU
http://shrt10.com/hru0E
http://shrt10.com/vhp7oJyEu
http://shrt10.com/b23MY
http://shrt10.com/5GtEP0
http://shrt10.com/7cYrheCL6
http://shrt10.com/d5BBU
http://shrt10.com/w0OaWU
http://shrt10.com/bhNp3N
http://shrt10.com/BCRQEIT2
http://shrt10.com/7XP5YAeq
http://shrt10.com/V9zTs47xF

 

 

 

Download Links with premium High Speed   

 

 

 

 

dropapk.to

 

 

 

nitroflare.com

 

 

 

rapidgator.net

 

 

 

uploaded.net

 

 

 

uploadgig.com

 

 

 

 

 

dx-tv.com

 

urlfree.net

Leave a Reply

Your email address will not be published. Required fields are marked *

This site uses Akismet to reduce spam. Learn how your comment data is processed.