WWE NXT 720p Free Online 2020 09 30

Watch WWE NXT 2020 09 30 720p HDTV NWCHD DX-TV

 

WWE NXT

 

WWE NXT
 


 

 

WWE NXT 720p Free Online 2020 09 30

 

Cameron Grimes and Ridge Holland fought to a stoppage in

the The Cameron Grimes Invitational Stepping Stones to The Moon Match

 

Upset after coming up short in last week’s Gauntlet Eliminator Challenge, Cameron Grimes revealed his own unique challenge, unveiling a man he referred to as “Joey Pistachio” as his first opponent. Unfortunately for Joey, he was met by a lightning-quick Cave-In as soon as he entered the ring to taste defeat. 

However, Ridge Holland threw a wrench into Grimes’ plans, answering the call next and pummeling The Technical Savage until the referee was forced to stop the action. 

WWE NXT

Kushida def. Tony Nese

 

Kushida continued to demonstrate the more aggressive approach he has used in recent weeks, taking the offense to Tony Nese in intense fashion. NXT’s resident Time Splitter forced Nese to submit to the Hoverboard Lock before being greeted by a video message from Velveteen Dream, who promised that the lights would be too bright for Kushida during their match at NXT TakeOver 31. 

WWE NXT

 

Complete name : WWE.NXT.2020.09.30.720p.HDTV.x264-NWCHD.mp4
Format : MPEG-4
Format profile : Base Media
Codec ID : isom
File size : 2.96 GiB
Duration : 1 h 30 min
Overall bit rate : 4 675 kb/s
Writing application : Lavf58.27.103

WWE NXT

Video
ID : 1
Format : AVC
Duration : 1 h 30 min
Bit rate : 4 500 kb/s
Width : 1 280 pixels
Height : 720 pixels
Display aspect ratio : 16:9
Frame rate mode : Variable
Frame rate : 29.970 FPS
Color space : YUV
Chroma subsampling : 4:2:0
Bit depth : 8 bits
Scan type : Progressive
Bits/(Pixel*Frame) : 0.163
Stream size : 2.83 GiB (96%)
Color primaries : BT.709
Transfer characteristics : BT.709
Matrix coefficients : BT.709
Codec configuration box : avcC

WWE NXT

Audio
ID : 2
Format : AAC LC
Format/Info : Advanced Audio
Codec ID : mp4a-40-2
Duration : 1 h 30 min
Bit rate mode : Constant
Bit rate : 192 kb/s
Channel(s) : 2 channels
Channel layout : L R
Sampling rate : 48.0 kHz
Frame rate : 46.875 FPS (1024 SPF)
Compression mode : Lossy
Stream size : 125 MiB (4%)
Title : Stereo
Language : English
Default : Yes
Alternate group : 1

 

 

WWE NXT 720p Free Online 2020 09 30

 

 

 

 

Watch online

 

 

 

 

 

Server 1

 

 

 

 

WWE NXT

 

 

 

 

Server-2

 

 

 

WWE NXT

 

 

 

 

Server-3

 

 

 

watch now

 

 

 

 

Uploaded By Site DX-TV.com

 

 

 

 

Download Free Links with normal and high Speed [ more 15 hosts ]  

 

 

 

http://shrt10.com/Wniwtiw
http://shrt10.com/MPwJD4Z
http://shrt10.com/umzr9Lg
http://shrt10.com/ibOyxKK
http://shrt10.com/cELgnisvz
http://shrt10.com/gRMrft
http://shrt10.com/v5kjW
http://shrt10.com/YlrSYfX2
http://shrt10.com/7HKineK7Y
http://shrt10.com/yoeFQ

 

 

 

 

Download Links with premium High Speed   

 

 

 

nitroflare.com

 

 

 

rapidgator.net

 

 

 

uploaded.net

 

 

 

uploadgig.com

 

 

 

 

 

dx-tv.com

 

urlfree.net

Leave a Reply

Your email address will not be published. Required fields are marked *

This site uses Akismet to reduce spam. Learn how your comment data is processed.