WWE NXT 30 12 2020 HDTV 720P/ 1080P DX-TV

WWE NXT 30 12 2020 HDTV 720P/ 1080P Star DX-TV

WWE NXT 30 12 2020

 WWE NXT 30 12 2020

 

Download Links with premium High Speed   

 

 

dropapk.to

http://shrt10.com/QFRGEctd
http://shrt10.com/SY9uZ1V
http://shrt10.com/STw3Sp

 

 

nitroflare.com

http://shrt10.com/3SAoJf
http://shrt10.com/kqbDfz
http://shrt10.com/ssE3tT

 

 

rapidgator.net

http://shrt10.com/fZcXrQ6
http://shrt10.com/TfifmEXX
http://shrt10.com/6JbglN1

 

 

uploaded.net

http://shrt10.com/QlGKbde
http://shrt10.com/1YKYMZD

 

 

uploadgig.com

http://shrt10.com/Vmv6R4
http://shrt10.com/AZbgr
http://shrt10.com/YBZFMfO

 

Watch online

 

Server 1

 

 

 

 

WWE NXT 30 12 2020

 

 

 

 

Server-2

 

 

 

 

watch now

 

 

Uploaded By Site DX-TV.com

 

 

Complete name : WWE.NXT.2020.12.30.HDTV.x264-Star.mp4
Format : MPEG-4
Format profile : Base Media / Version 2
Codec ID : mp42
File size : 947 MiB
Duration : 1 h 33 min
Overall bit rate : 1 413 kb/s

WWE NXT 30 12 2020

Video
ID : 1
Format : AVC
Duration : 1 h 33 min
Bit rate : 1 300 kb/s
Width : 720 pixels
Height : 480 pixels
Display aspect ratio : 16:9
Original display aspect rat : 16:9
Frame rate mode : Constant
Frame rate : 29.970 (30000/1001) FPS
Standard : NTSC
Color space : YUV
Chroma subsampling : 4:2:0
Bit depth : 8 bits
Scan type : Progressive
Bits/(Pixel*Frame) : 0.126
Stream size : 866 MiB (91%)
Color range : Limited
Color primaries : BT.709
Transfer characteristics : BT.709
Matrix coefficients : BT.709
Codec configuration box : avc

WWE NXT 30 12 2020

Audio
ID : 2
Format : AAC LC
Format/Info : Advanced Audio
Codec ID : mp4a-40-2
Duration : 1 h 33 min
Bit rate mode : Constant
Bit rate : 112 kb/s
Channel(s) : 2 channels
Channel layout : L R
Sampling rate : 48.0 kHz
Frame rate : 46.875 FPS (1024 SPF)
Compression mode : Lossy
Stream size : 74.8 MiB (8%)
Title : Stereo
Default : Yes
Alternate group : 1

Complete name : WWE.NXT.2020.12.30.720p.HDTV.x264-Star.mkv
Format : Matroska
Format version : Version 4
File size : 2.69 GiB
Duration : 1 h 33 min
Overall bit rate : 4 110 kb/s
Writing library : Lavf58.29.100

WWE NXT 30 12  

Video
ID : 1
Format : AVC
Duration : 1 h 33 min
Bit rate : 4 000 kb/s
Width : 1 280 pixels
Height : 720 pixels
Display aspect ratio : 16:9
Frame rate mode : Constant
Frame rate : 29.970 (30000/1001) FPS
Color space : YUV
Chroma subsampling : 4:2:0
Bit depth : 8 bits
Scan type : Progressive
Bits/(Pixel*Frame) : 0.145
Stream size : 2.55 GiB (95%)
Forced : No
Color range : Limited
Color primaries : BT.709
Transfer characteristics : BT.709
Matrix coefficients : BT.709

WWE NXT 30 12 2020

Audio
ID : 2
Format : AC-3
Format/Info : Audio Coding 3
Commercial name : Dolby Digital
Codec ID : A_AC3
Duration : 1 h 33 min
Bit rate mode : Constant
Bit rate : 128 kb/s
Channel(s) : 2 channels
Channel layout : L R
Sampling rate : 48.0 kHz
Frame rate : 31.250 FPS (1536 SPF)
Compression mode : Lossy
Delay relative to video : -5 ms
Stream size : 85.8 MiB (3%)
Title : Stereo
Service kind : Complete Main
Default : Yes
Forced : No

Complete name : WWE.NXT.2020.12.30.1080p.HDTV.x264-Star.mkv
Format : Matroska
Format version : Version 4
File size : 5.29 GiB
Duration : 1 h 33 min
Overall bit rate : 8 092 kb/s

Video
ID : 1
Format : AVC
Duration : 1 h 33 min
Bit rate : 8 000 kb/s
Width : 1 920 pixels
Height : 1 080 pixels
Display aspect ratio : 16:9
Frame rate mode : Constant
Frame rate : 29.970 (30000/1001) FPS
Color space : YUV
Chroma subsampling : 4:2:0
Bit depth : 8 bits
Scan type : Progressive
Bits/(Pixel*Frame) : 0.129
Stream size : 5.11 GiB (96%)
Forced : No
Color range : Limited
Color primaries : BT.709
Transfer characteristics : BT.709
Matrix coefficients : BT.709

Audio
ID : 2
Format : AC-3
Format/Info : Audio Coding 3
Commercial name : Dolby Digital
Codec ID : A_AC3
Duration : 1 h 33 min
Bit rate mode : Constant
Bit rate : 128 kb/s
Channel(s) : 2 channels
Channel layout : L R
Sampling rate : 48.0 kHz
Frame rate : 31.250 FPS (1536 SPF)
Compression mode : Lossy
Delay relative to video : -5 ms
Stream size : 85.8 MiB (2%)
Title : Stereo
Service kind : Complete Main
Default : Yes
Forced : No

 

 

https://dx-tv.com/

Leave a Reply

Your email address will not be published. Required fields are marked *

This site uses Akismet to reduce spam. Learn how your comment data is processed.