WWE NXT 2021 01 13 1080p HDTV Star DX-TV

WWE NXT 2021 01 13 1080p HDTV Star DX-TV

WWE NXT 2021 01 13

 WWE NXT 2021 01 13

 

Download Links with premium High Speed   

 

nitroflare.com

http://shrt10.com/PbJIZMnR

 

 

rapidgator.net

http://shrt10.com/mUuxqiO

 

 

uploadgig.com

http://shrt10.com/WGE1csNu

 

Watch WWE NXT online

 

Server 1

 

 

 

 

WWE NXT 2021

 

 

 

 

Server-2

 

 

 

 

watch now

 

 

Uploaded By Site DX-TV.com

 

Complete name : WWE.NXT.2021.01.13.1080p.HDTV.x264-Star.mkv
Format : Matroska
Format version : Version 4
File size : 5.08 GiB
Duration : 1 h 29 min
Overall bit rate : 8 127 kb/s

WWE NXT 2021

Video
ID : 1
Format : AVC
Format/Info : Advanced Video
Codec ID : V_MPEG4/ISO/AVC
Duration : 1 h 29 min
Bit rate : 8 000 kb/s
Width : 1 920 pixels
Height : 1 080 pixels
Display aspect ratio : 16:9
Frame rate mode : Constant
Frame rate : 29.970 (30000/1001) FPS
Color space : YUV
Chroma subsampling : 4:2:0
Bit depth : 8 bits
Scan type : Progressive
Bits/(Pixel*Frame) : 0.129
Stream size : 4.90 GiB (96%)
Forced : No
Color range : Limited
Color primaries : BT.709
Transfer characteristics : BT.709
Matrix coefficients : BT.709

WWE NXT 2021

Audio
ID : 2
Format : AC-3
Format/Info : Audio Coding 3
Commercial name : Dolby Digital
Codec ID : A_AC3
Duration : 1 h 29 min
Bit rate mode : Constant
Bit rate : 128 kb/s
Channel(s) : 2 channels
Channel layout : L R
Sampling rate : 48.0 kHz
Frame rate : 31.250 FPS (1536 SPF)
Compression mode : Lossy
Delay relative to video : -5 ms
Stream size : 81.9 MiB (2%)
Title : Stereo
Service kind : Complete Main
Default : Yes
Forced : No

WWE NXT  

Audio
ID : 2
Format : AC-3
Format/Info : Audio Coding 3
Commercial name : Dolby Digital
Codec ID : A_AC3
Duration : 1 h 29 min
Bit rate mode : Constant
Bit rate : 128 kb/s
Channel(s) : 2 channels
Channel layout : L R
Sampling rate : 48.0 kHz
Frame rate : 31.250 FPS (1536 SPF)
Compression mode : Lossy
Delay relative to video : -5 ms
Stream size : 81.9 MiB (2%)
Title : Stereo
Service kind : Complete Main
Default : Yes
Forced : No

WWE NXT  

https://dx-tv.com/

Leave a Reply

Your email address will not be published. Required fields are marked *

This site uses Akismet to reduce spam. Learn how your comment data is processed.