WWE NXT 2020 November 11 Full Show Online

Watch WWE NXT 2020 11 11 HDTV Star DX-TV

WWE NXT 2020 November 11

 

 WWE NXT 2020 November 11
 


 

 

WWE NXT 2020 November 11 Full Show Online

 

Complete name :WWE.NXT.2020.11.11.HDTV.x264-Star.mp4
Format : MPEG-4
Format profile : Base Media / Version 2
Codec ID : mp42 (isom/iso2/avc1)
File size : 903 MiB
Duration : 1 h 25 min
Overall bit rate : 1 469 kb/s

WWE NXT 2020 November 11

Video
ID : 1
Format : AVC
Duration : 1 h 25 min
Bit rate : 1 300 kb/s
Width : 720 pixels
Height : 480 pixels
Display aspect ratio : 16:9
Original display aspect rat : 16:9
Frame rate mode : Constant
rate : 29.970 (30000/1001) FPS
Standard : NTSC
Color space : YUV
Chroma subsampling : 4:2:0
Bit depth : 8 bits
Scan type : Progressive
Bits/(Pixel*Frame) : 0.126
Stream size : 799 MiB (89%)
Color range : Limited
Color primaries : BT.601 NTSC
Transfer characteristics : BT.709
Matrix coefficients : BT.601
Codec configuration box : avcC

WWE NXT 2020 November 11

Audio
ID : 2
Format : AAC LC
Format/Info : Advanced Audio
Codec ID : mp4a-40-2
Duration : 1 h 25 min
Bit rate mode : Constant
Bit rate : 159 kb/s
Channel(s) : 2 channels
Channel layout : L R
Sampling rate : 48.0 kHz
Frame rate : 46.875 FPS (1024 SPF)
Compression mode : Lossy
Stream size : 97.8 MiB (11%)
Title : Stereo
Default : Yes
Alternate group : 1

WWE NXT 2020 November 11

Johnny Gargano aims to break his championship curse against a “worthy opponent”

Johnny Gargano has vowed to end his championship curse this week on NXT, and he says he’ll do so against a “worthy opponent” this week on NXT.

The first two-time NXT North American Champion is out to right what he calls the one blemish on his storied black-and-gold brand legacy.

Both previous times Gargano has held a singles title in NXT, he lost in his first defense.

His first North American Title reign lasted only 25 days, and he lost the NXT Championship in his first defense against Adam Cole last year.

Who will Johnny Wrestling face, and will he finally put the curse to bed?

Plus, will the NXT Universe come any closer to learning the identity of the masked assailant who helped him become champion?

 

 

 

WWE NXT 2020 November 11 Full Show Online

 

Watch online

 

 

Server 1

 

 

 

 

 

 

 

 

Server-2

WWE NXT 2020 November 11

 

 

 

 

 

 

 

 

Uploaded By Site DX-TV.com

 

 

 

 

Download Free Links with normal and high Speed [ more 14 hosts ]  

 

[su_expand more_text=”Show Hosts Info” less_text=”Close all Info” height=”30″ text_color=”#000000″ link_color=”#e25f8b” link_style=”button” more_icon=”icon: arrow-down” less_icon=”icon: arrow-up”]

 

 

hexupload.net – clicknupload.co – www.multiup.org – uptobox.com – anonfiles.com – userscloud.com –

dropapk.to alfafile.net – ddownload.com – rockfile.co – 1fichier.com – filedown.org – katfile.com – filerio.in

 

 

[/su_expand]

 

 

 

http://shrt10.com/1Wu4B
http://shrt10.com/mNpIpaz1
http://shrt10.com/ptspnaogK
http://shrt10.com/k5o1OV
http://shrt10.com/lHLBeO6LN
http://shrt10.com/LUDu2yXwe
http://shrt10.com/myDPc
http://shrt10.com/TaGbtNGzu

 

 

 

Download Links with premium High Speed   

 

 

 

 

dropapk.to

 

 

 

nitroflare.com

 

 

 

rapidgator.net

 

 

 

uploaded.net

 

 

 

uploadgig.com

 

 

 

 

 

dx-tv.com

 

urlfree.net

Leave a Reply

Your email address will not be published. Required fields are marked *

This site uses Akismet to reduce spam. Learn how your comment data is processed.