WWE NXT 2020 02 12 1080p HDTV Star

Watch WWE NXT 2020 02 12 1080p HDTV Star DX-TV

 

WWE NXT 2020

 

 WWE NXT

 

 

 

 

WWE NXT 2020 02 12 1080p HDTV Star

 

 

 

 

 

Complete name : WWE.NXT.2020.02.12.1080p.HDTV.x264-Star.mkv
Format : Matroska
Format version : Version 4
File size : 7.01 GiB
Duration : 1 h 32 min
Overall bit rate : 10.9 Mb/s
Writing library : WWE NXT 2020
ErrorDetectionType : Per level 1

Video
ID : 1
Format : AVC
Codec ID : V_MPEG4/ISO/AVC
Duration : 1 h 32 min
Bit rate : 10.5 Mb/s
Width : 1 920 pixels
Height : 1 080 pixels
Display aspect ratio : 16:9
Frame rate mode : Constant
Frame rate : 25.000 FPS
Color space : YUV
Chroma subsampling : 4:2:0
Bit depth : 8 bits
Scan type : Progressive
Bits/(Pixel*Frame) : 0.203
Stream size : 6.62 GiB (94%)
Forced : No
Color range : Limited
Color primaries : BT.709
Transfer characteristics : BT.709
Matrix coefficients : BT.709

Audio
ID : 2
Format : AC-3
Codec ID : A_AC3
Duration : 1 h 32 min
Bit rate mode : Constant
Bit rate : 384 kb/s
Channel(s) : 6 channels
Channel layout : L R C LFE Ls Rs
Sampling rate : 48.0 kHz
Frame rate : 31.250 FPS (1536 SPF)
Compression mode : Lossy
Delay relative to video : -5 ms
Stream size : 253 MiB (4%)
Title : Surround
Language : any
Service kind : Complete Main
Default : Yes
Forced : No

 

NXT

 

Watch online

 

 

Server 1

 

 

 

 

 

watch now

 

 

 

WWE NXT 2020 02 12 1080p HDTV Star

 

 

 

Uploaded By Site DX-TV.com

 

 

 

 

1fichier.com 

https://shrt10.com/UVoWFpxcM
https://shrt10.com/8EDGdm4
https://shrt10.com/2untTGB
https://shrt10.com/mJ69Povq

 

DDL.to

https://shrt10.com/BYQzWbGm
https://shrt10.com/Wv5EXM8m
https://shrt10.com/FMuhlm
https://shrt10.com/ESkvT

 

earn4files.com

https://shrt10.com/Svr4tkD
https://shrt10.com/xsY5v
https://shrt10.com/O5cBIAbG
https://shrt10.com/e2SVwO5

 

rockfile.co

https://shrt10.com/ZmPDp2H
https://shrt10.com/ziqDQxTM
https://shrt10.com/I4MBs
https://shrt10.com/7fhB9

 

 

Download with premium account Links 

 

 

Keep2Share

 

 

nitroflare.com

 

 

rapidgator.net

 

 

uploadgig.com

 

 

 

dx-tv.com

 

Leave a Reply

Your email address will not be published. Required fields are marked *

This site uses Akismet to reduce spam. Learn how your comment data is processed.