WWE NXT 2020 01 29 720p

WWE NXT 2020 01 29 720p DX-TV

 

 

WWE NXT

 

 

 

 

dx-tv.com

 

 

wwe NXT

 

WWE NXT 2020 01 29 720p

 

 

Complete name : WWE.NXT.2020.01.29.HDTV.x264-Star.mp4
Format : MPEG-4
Format profile : Base Media
File size : 1.02 GiB
Duration : 1 h 27 min
Overall bit rate : 1 675 kb/s

Video
ID : 1
Format : AVC
Codec ID : avc1
Duration : 1 h 27 min
Bit rate : 1 500 kb/s
Width : 720 pixels
Height : 406 pixels
Display aspect ratio : 16:9
Frame rate : 25.000 FPS
Color space : YUV
Chroma subsampling : 4:2:0
Bits/(Pixel*Frame) : 0.205
Stream size : 942 MiB (90%)
Color range : Limited

Audio
ID : 2
Duration : 1 h 27 min
Bit rate mode : Constant
Bit rate : 159 kb/s
Channel(s) : 2 channels
Channel layout : L R
Sampling rate : 48.0 kHz
Frame rate : 46.875 FPS (1024 SPF)
Compression mode : Lossy
Stream size : 99.2 MiB (9%)
Title : Stereo
Language : any
Default : Yes
Alternate group : 1

WWE NXT

In the wake of Finn Bálor’s vicious parking lot assault on Trent Seven one day earlier — a warning to stay out of his business with Johnny Gargano the two Superstars squared off in NXT’s opening matchup.

The match was intense from the word “go.” Taking full advantage of The Big Strong Boi’s bruised larynx that he suffered as a result of his adversary’s attack, Bálor dominated the majority of the contest.

Though the resilient Seven roared back and nearly put his foe away with the Seven Stars Lariat, Bálor ultimately reigned supreme with the Coup De Grace into the devastating 1916 DDT

One week after Shotzi Blackheart suffered painful retribution at the hands of Shayna Baszler for dumping the former NXT Women’s Champion out of the ring in a high-stakes Battle Royal the week before

as well as a backstage attack by Deonna Purrazzo in the aftermath – the up-and-comer bounced back

by hitting the Senton Splash on Purrazzo in a hard-fought victory.

 

Watch online

 

 

Server 1

 

 

 

watch now

 

 

 

WWE NXT 2020 01 29 720p

 

 

 

Uploaded By Site DX-TV.com

 

 

 

 

 

1fichier.com 

 

https://shrt10.com/YtmtHD0
https://shrt10.com/lImivl7rT

dailyuploads.net

https://shrt10.com/NIV549b
https://shrt10.com/B4lKaIx7s

 

DDL.to

https://shrt10.com/qICSFVr
https://shrt10.com/54Y8fQzP

 

dl.free.fr

https://shrt10.com/r0aNXvOi
https://shrt10.com/PoqM2NAuR

 

earn4files.com

https://shrt10.com/cF8CMh
https://shrt10.com/QDeCWUf5

 

filerio.in

https://shrt10.com/g9gespj
https://shrt10.com/5MK4dPMh

 

katfile.com

 

https://shrt10.com/UGI0xwLj
https://shrt10.com/STNFLxoa

rockfile.co

https://shrt10.com/CIY5rO
https://shrt10.com/UoufZlYj

 

Ubloadbank.com

 

https://shrt10.com/TflmQnbL
https://shrt10.com/8qlvrvT

 

Download with premium account Links 

 

 

nitroflare.com

 

 

rapidgator.net

 

 

uploaded.net

 

2 thoughts on “WWE NXT 2020 01 29 720p

Comments are closed.

%d bloggers like this: