WWE NXT 2018 09 26 720p WEB HEEL

WWE NXT 2018 09 26 720p WEB HEEL

 

 

 

 


 

 

 

dx-tv.com

 

 

 

 

Complete name : WWE.NXT.2018.09.26.720p.WEB.h264-HEEL.mp4
Format : MPEG-4
Format profile : Base Media
File size : 1.88 GiB
Duration : 59 min 52 s
Overall bit rate mode : Constant
Overall bit rate : 4 505 kb/s
Writing application : Lavf58.2.103

Video
ID : 1
Format : AVC
Format/Info : Advanced Video Codec
Codec ID/Info : Advanced Video Coding
Duration : 59 min 52 s
Duration_FirstFrame : 1 ms
Bit rate mode : Constant
Bit rate : 4 372 kb/s
Width : 1 280 pixels
Height : 720 pixels
Display aspect ratio : 16:9
Frame rate mode : Constant
Frame rate : 29.970
Color space : YUV
Chroma subsampling : 4:2:0
Bit depth : 8 bits
Scan type : Progressive
Bits/(Pixel*Frame) : 0.158
Stream size : 1.83 GiB (97%)

Audio
ID : 2
Format : AAC
Format/Info : Advanced Audio Codec
Format profile : LC
Codec ID : mp4a-40-2
Duration : 59 min 52 s
Bit rate mode : Constant
Bit rate : 125 kb/s
Channel(s) : 2 channels
Channel positions : Front: L R
Sampling rate : 48.0 kHz
Frame rate : 46.875 FPS (1024 SPF)
Compression mode : Lossy
Stream size : 53.7 MiB (3%)
Language : English

 

 

 

 

 

 

WWE NXT 2018 09 26 720p WEB HEEL

 

 

 

 

Watch online

 

 

Waiting finish converting video

 

 

Server 1

 

 

 

 

 

 

 

 

 

 

 

 

Server 2

 

 

 

 

 

 

 


 

 

 

 

 

 

Uploaded By Site DX-TV.com

 

 

 

open rar file to see this password

 

 

 

 

The password : DX-TV.com

 

 

 

 

 

 

Uploaded.net + rapidgator.net

 

 

 

 

 

 

 
http://shrt10.com/zsGDLlo

 

 

 

 

 
http://shrt10.com/tb8BTfSM
 

 

 

 

 

 

 

 

WWE NXT 2018 09 26 720p WEB HEEL