WWE NXT 2018 09 12 720p WWE Network HDTV Star mp4

WWE NXT 2018 09 12 720p WWE Network HDTV Star mp4

 

 

 

 


 

 

 

dx-tv.com

 

 

 

 

 

 

 

Complete name : WWE.NXT.2018.09.12.720p.WWE.Network.HDTV.x264-Star.mp4
Format : MPEG-4
File size : 1.71 GiB
Duration : 51 min 55 s
Overall bit rate mode : Variable
Overall bit rate : 4 727 kb/s
Encoded date : UTC 2018-09-13 01:41:50
Tagged date : UTC 2018-09-13 01:41:50

Video
ID : 1
Format : AVC
Format/Info : Advanced Video Codec
Codec ID/Info : Advanced Video Coding
Duration : 51 min 55 s
Bit rate : 4 500 kb/s
Width : 1 280 pixels
Height : 720 pixels
Display aspect ratio : 16:9
Frame rate mode : Constant
Frame rate : 29.970
Color space : YUV
Chroma subsampling : 4:2:0
Bit depth : 8 bits
Scan type : Progressive
Bits/(Pixel*Frame) : 0.163
Stream size : 1.64 GiB (96%)
Encoded date : UTC 2018-09-13 01:41:50
Tagged date : UTC 2018-09-13 01:41:50
Color range : Limited
Color primaries : BT.709
Transfer characteristics : BT.709
Matrix coefficients : BT.709

Audio
ID : 2
Format : AAC
Format/Info : Advanced Audio Codec
Format profile : LC
Codec ID : mp4a-40-2
Duration : 51 min 55 s
Bit rate mode : Variable
Bit rate : 192 kb/s
Channel(s) : 2 channels
Channel positions : Front: L R
Sampling rate : 48.0 kHz
Frame rate : 46.875 FPS
Compression mode : Lossy
Stream size : 71.3 MiB (4%)
Title : Stereo / Stereo
Default : Yes
Alternate group : 1
Encoded date : UTC 2018-09-13 01:41:50
Tagged date : UTC 2018-09-13 01:41:50

 

 

 

 

 

 

 

 

WWE NXT 2018 09 12 720p WWE Network HDTV Star mp4

 

 

 

 

Watch online

 

 

Waiting finish converting video

 

 

Server 1

 

 

 

 

 

 

 

 

 

 

 

 

 

 

 

 

 

 

 

 

Server 2

 

 

 

 

 

 

 

 


 

 

 

 

 

Uploaded By Site DX-TV.com

 

 

 

open rar file to see this password

 

 

 

 

The password : DX-TV.com

 

 

 

 

Uploaded.net + rapidgator.net

 

 

 

 

 

 

http://shrt10.com/fukEjP10

 

 

 

 

 

 

http://shrt10.com/Jj6V6

 

 

 

 

 

 

 

 

WWE NXT 2018 09 12 720p WWE Network HDTV Star mp4