WWE NXT 2018 05 30 WEB HEEL /720p Watch / Download

WWE NXT 2018 05 30 WEB HEEL /720p Watch / Download

 

 

 

 


dx-tv.com

 

 

 

 

 

 

Complete name : WWE.NXT.2018.05.30.WEB.h264-HEEL.mp4
Format : MPEG-4
Format profile : Base Media
Codec ID : isom
File size : 770 MiB
Duration : 59mn 39s
Overall bit rate : 1 805 Kbps

Video
ID : 1
Format : AVC
Format/Info : Advanced Video Codec
Codec ID : avc1
Codec ID/Info : Advanced Video Coding
Duration : 59mn 39s
Bit rate mode : Constant
Bit rate : 1 704 Kbps
Width : 896 pixels
Height : 504 pixels
Display aspect ratio : 16:9
Frame rate mode : Variable
Frame rate : 29.970 fps
Minimum frame rate : 29.060 fps
Maximum frame rate : 29.970 fps
Color space : YUV
Chroma subsampling : 4:2:0
Bit depth : 8 bits
Scan type : Progressive
Bits/(Pixel*Frame) : 0.126
Stream size : 727 MiB (94%)

Audio
ID : 2
Format : AAC
Format/Info : Advanced Audio Codec
Format profile : LC
Codec ID : 40
Duration : 59mn 39s
Bit rate mode : Variable
Bit rate : 93.5 Kbps
Maximum bit rate : 97.9 Kbps
Channel(s) : 2 channels
Channel positions : Front: L R
Sampling rate : 48.0 KHz
Compression mode : Lossy
Stream size : 39.9 MiB (5%)
Language : English
 

 

 

 

 
Title: WWE.NXT.2018.05.30.720p.WEB.h264-HEEL
Released: 2018.05.30
Source: WWE Network
Resolution: 1280 x 720 @ 29.970 FPS
Video: H.264 @ 4500 kbps
Audio: AAC @ 128 kbps
Size: 1.88 GB
Runtime: 59mn 39sec
 

 

 

 

 

 

WWE NXT 2018 05 30 WEB HEEL /720p Watch / Download

 

 

 

 

Watch online

 

 

Waiting finish converting video

 

 

Server 1

 

 

 

 

 

 

 

 

 

 

 

 

 

 

 

 

 

Server 2

 

 

 

 

 

 

 

 


 

 

Uploaded By Site DX-TV.com

 

 

 

open rar file to see this password

 

 

 

 

The password is : DX-TV.com

 

 

 

 

400p+720p

 

 

 

 

 

Uploaded.net + rapidgator.net

 

 

 

 

 

 

 
http://shrt10.com/z4j5j
 

 

 

 

 
http://shrt10.com/Pjc7DPHQ

 

 

 

http://shrt10.com/yUxZo
 

 

 

 

 
http://shrt10.com/EXoTQ

 

 

 

 

 

 

 

WWE NXT 2018 05 30 WEB HEEL /720p Watch / Download

Support HVIPS

Please Disable Ad-Block To View This site. just help us to continue this work