WWE NXT 2 0 2021 09 28 Full Show Online Replay

WWE NXT 2 0 2021 09 28 720p/ 1080p Full Show Online Free Replay DX-TV

WWE NXT 2 0

 WWE NXT 2 0

 

 

 

Download Links with premium High Speed
 

 


 

Dopapk

 

 

Show Links

 

 

http://shrt10.com/UG3Jj
http://shrt10.com/40jU9FTL
http://shrt10.com/Kfl54oA

 

 

 

 

 

Nitroflare

 

 

Show Links

 

 

http://shrt10.com/IjGiCBkY
http://shrt10.com/oabttn
http://shrt10.com/Z6zBMnU

 

 

 

 

Rapidgator

 

 

Show Links

 

 

http://shrt10.com/8pySws4w
http://shrt10.com/EUIxZ
http://shrt10.com/fL2Sx

 

 

 

 

 

Uploaded
 

 

 

Show Links

 

 

http://shrt10.com/lPdlImt
http://shrt10.com/HE4Src

 

 

 

 

 

 

 

Watch online

 

Server 1

 

 

 

 

WWE NXT 2 0

 

 

 

 

Server-2

 

 

 

 

watch now

 

 

 

|Server-3

 

 

 

 

watch now

 

 

Uploaded By Site DX-TV.com

 

 

Open Info Show

 

 

Complete name : WWE.NXT.2.0.2021.09.28.HDTV.x264-NWCHD.mp4
Format : MPEG-4
Format profile : Base Media
Codec ID : isom
File size : 1.02 GiB
Duration : 1 h 31 min
Overall bit rate : 1 604 kb/s

WWE NXT 2 0

Video
ID : 1
Format : AVC
Format/Info : Advanced
Duration : 1 h 31 min
Bit rate : 1 403 kb/s
Width : 704 pixels
Height : 400 pixels
Display aspect ratio : 16:9
Frame rate mode : Variable
Frame rate : 29.970 (30000/1001) FPS
Minimum frame rate : 16.251 FPS
Maximum frame rate : 29.970 FPS
Color space : YUV
Chroma subsampling : 4:2:0
Bit depth : 8 bits
Scan type : Progressive
Bits/(Pixel*Frame) : 0.166
Stream size : 913 MiB (87%)
Color primaries : BT.709
Transfer characteristics : BT.709
Matrix coefficients : BT.709
Codec configuration box : avcC

WWE NXT 2 0

Audio
ID : 2
Format : AAC LC
Format/Info : Advanced Audio Codec Low Complexity
Codec ID : mp4a-40-2
Duration : 1 h 31 min
Bit rate mode : Constant
Bit rate : 192 kb/s
Channel(s) : 2 channels
Channel layout : L R
Sampling rate : 48.0 kHz
Frame rate : 46.875 FPS (1024 SPF)
Compression mode : Lossy
Stream size : 125 MiB (12%)
Title : Stereo
Language : English
Default : Yes
Alternate group : 1

Complete name : WWE.NXT.2.0.2021.09.28.1080p.HDTV.x264-NWCHD.mp4
Format : MPEG-4
Format profile : Base Media
File size : 5.23 GiB
Duration : 1 h 31 min
Overall bit rate : 8 229 kb/s

Video
ID : 1
Format : AVC
Format/Info : Advanced Codec
Duration : 1 h 31 min
Bit rate : 8 026 kb/s
Width : 1 920 pixels
Height : 1 080 pixels
Display aspect ratio : 16:9
Frame rate mode : Variable
Frame rate : 29.970 (30000/1001) FPS
Minimum frame rate : 16.251 FPS
Maximum frame rate : 29.970 FPS
Color space : YUV
Chroma subsampling : 4:2:0
Bit depth : 8 bits
Scan type : Progressive
Bits/(Pixel*Frame) : 0.129
Stream size : 5.10 GiB (98%)
Color primaries : BT.709
Transfer characteristics : BT.709
Matrix coefficients : BT.709
Codec configuration box : avcC

WWE NXT 2 0

Audio
ID : 2
Format : AAC LC
Format/Info : Advanced
Codec ID : mp4a-40-2
Duration : 1 h 31 min
Bit rate mode : Constant
Bit rate : 192 kb/s
Channel(s) : 2 channels
Channel layout : L R
Sampling rate : 48.0 kHz
Frame rate : 46.875 FPS (1024 SPF)
Compression mode : Lossy
Stream size : 125 MiB (2%)
Title : Stereo
Language : English
Default : Yes
Alternate group : 1

General
Complete name : WWE.NXT.2.0.2021.09.28.720p.HDTV.x264-NWCHD.mp4
Format : MPEG-4
Format profile : Base Media
Codec ID : so2/avc1/mp41)
File size : 3.00 GiB
Duration : 1 h 31 min
Overall bit rate : 4 718 kb/s

Video
ID : 1
Codec ID/Info : Advanced Video
Duration : 1 h 31 min
Bit rate : 4 517 kb/s
Width : 1 280 pixels
Height : 720 pixels
Display aspect ratio : 16:9
Frame rate mode : Variable
Frame rate : 29.970 (30000/1001) FPS
Minimum frame rate : 16.251 FPS
Maximum frame rate : 29.970 FPS
Color space : YUV
Chroma subsampling : 4:2:0
Bit depth : 8 bits
Scan type : Progressive
Bits/(Pixel*Frame) : 0.164
Stream size : 2.87 GiB (96%)
Color primaries : BT.709
Transfer characteristics : BT.709
Matrix coefficients : BT.709
Codec configuration box : avcC

WWE NXT 2 0

Audio
ID : 2
Codec ID : mp4a-40-2
Duration : 1 h 31 min
Bit rate mode : Constant
Bit rate : 192 kb/s
Channel(s) : 2 channels
Channel layout : L R
Sampling rate : 48.0 kHz
Frame rate : 46.875 FPS (1024 SPF)
Compression mode : Lossy
Stream size : 125 MiB (4%)
Title : Stereo
Language : English
Default : Yes
Alternate group : 1

 

 

https://dx-tv.com/

 

 

 

 

 

You May Also Like

Leave a Reply

Your email address will not be published. Required fields are marked *

This site uses Akismet to reduce spam. Learn how your comment data is processed.