WWE NXT 15 07 2020 720p Free Online HDTV DX-TV

Watch WWE NXT 15 07 2020 720p HDTV DX-TV.COM

 

WWE NXT Free Online

 WWE NXT Free Online

 

WWE NXT 15 07 2020 720p Free Online HDTV DX-TV

 

 

Complete name : WWE NXT 15 07 2020 720p HDTV H264 DX-TV.COM.mp4
Format : MPEG-4
Format profile : Base Media
Codec ID : isom
File size : 2.35 GiB
Duration : 1 h 32 min
WWE NXT Free Online : Constant
Overall bit rate : 3 633 kb/s
Law rating : TV-PG (V)
Writing application : Lavf55.33.100

WWE NXT 15 07 2020 720p Free Online HDTV DX-TV

Video
ID : 2
Format : AVC
Format/Info : Advanced
Codec ID : avc1
Codec ID/Info : Advanced
Duration : 1 h 32 min
Bit rate mode : Constant
Bit rate : 3 500 kb/s
Width : 1 280 pixels
Height : 720 pixels
WWE NXT Free Online ratio : 16:9
Frame rate : 29.970 FPS
Standard : Component
Color space : YUV
Chroma subsampling : 4:2:0
Bit depth : 8 bits
Scan type : Progressive
Bits/(Pixel*Frame) : 0.127
Stream size : 2.26 GiB (96%)
Color range : Limited
Color primaries : BT.709
WWE NXT Free Online : BT.709
Matrix coefficients : BT.709
Codec configuration box : avcC

Audio
ID : 1
Format : AAC LC
Format/Info : Advanced
Codec ID : mp4a-40-2
Duration : 1 h 32 min
Bit rate mode : Constant
Bit rate : 125 kb/s
Channel(s) : 2 channels
Channel layout : L R
Sampling rate : 48.0 kHz
Frame rate : WWE NXT Free Online
Compression mode : Lossy
Stream size : 83.1 MiB (3%)
Default : Yes
Alternate group : 1

 NXT 15 07 2020 720p Free Online HDTV DX-TV

Text #1
ID : 2-CC1
Format : EIA-608
Muxing mode : SCTE 128
WWE NXT Free Online info  
Duration : 1 h 32 min
Bit rate mode : Constant
Stream size : 0.00 Byte (0%)
CaptionServiceName : CC1

Text #2
ID : 2-1
Format : EIA-708
Muxing mode : SCTE 128
WWE NXT Free Online info 
Duration : 1 h 32 min
Bit rate mode : Constant
Stream size : 0.00 Byte (0%)

 

wwe nxt free online

 

 

 NXT 15 07 2020 720p Free Online HDTV DX-TV

 

Damian Priest has been embroiled in a feud with Cameron Grimes over the past month Previously, both men had feuded with (and eventually lost) to Finn Balor,

which is kind of how this all started.  Both men had a solid match on NXT Free Live a few weeks ago. 

Grimes managed to take advantage of an injured, far from 100% version of Priest and which allowed him to inevitably secure the win.

Now, however, it is an absolute certainty that the big man will be looking for revenge. 

This crazy, cowboy adversary is a thorn in the side of Priest and he wants it gone. 

Will he manage to successfully secure a win this week? Tune in to find out.

 

WWE NXT 15 07 2020 720p Free Online HDTV DX-TV

 

 

 

Watch online

 

 

Server 1

 

 

 

 

watch now

 

 

 

 

Server 2

 

 

 

WWE NXT Free Online

 

 

 

Server-3

 

 

 

watch now

 

 

 

Uploaded By Site DX-TV.com

 

 

 

Download with premium account Links 

 

 

Keep2Share

 

 

nitroflare.com

 

 

rapidgator.net

 

 

uploadgig.com

 

 

 

dx-tv.com

 

urlfree.net

Leave a Reply

Your email address will not be published. Required fields are marked *

This site uses Akismet to reduce spam. Learn how your comment data is processed.