WWE Most Wanted Treasures S01E05 Sgt Slaughter

WWE Most Wanted Treasures S01E05 Sgt Slaughter & The Iron Sheik 720p DX-TV

WWE Most Wanted Treasures S01E05

 WWE Most Wanted Treasures S01E05

 

 

 

Download Links with High Speed


 

Dopapk

 

 

Show Links

 

http://shrt10.com/J6Dz9i
http://shrt10.com/CxyPO4k

 

[collapse]

 

 

Nitroflare

 

 

Show Links

 

 

[collapse]

 

 

Rapidgator

 

 

Show Links

 

http://shrt10.com/2k2MOjkh1
http://shrt10.com/sFFzcWkGf

 

[collapse]

 

 

Uploaded

 

 

Show Links

 

http://shrt10.com/OftihaKdO
http://shrt10.com/y1QJjb9

 

[collapse]

 

 

Watch online

 

Server 1

 

 

 

 

WWE Most Wanted Treasures S01E05

 

 

 

 

Server-2

 

 

 

 

watch now

 

 

 

|Server-3

 

 

 

 

watch now

 

 

Uploaded By Site DX-TV.com

 

 

Show Info This Show

 

 

Complete name : WWE’s.Most.Wanted.Treasures.S01E05.Sgt.Slaughter.&.The.Iron.Sheik.1080p.HDTV.x264-NWCHD.mp4
Format : MPEG-4
Format profile : Base Media
File size : 2.40 GiB
Duration : 41 min 57 s
Overall bit rate mode : Variable
Overall bit rate : 8 194 kb/s

WWE Most Wanted Treasures S01E05

Video
ID : 1
Format : AVC
Codec ID : avc1
Duration : 41 min 57 s
Bit rate : 8 000 kb/s
Width : 1 920 pixels
Height : 1 080 pixels
Display aspect ratio : 16:9
Frame rate mode : Constant
Frame rate : 29.970 (30000/1001) FPS
Color space : YUV
Chroma subsampling : 4:2:0
Bit depth : 8 bits
Scan type : Progressive
Bits/(Pixel*Frame) : 0.129
Stream size : 2.34 GiB (98%)
Color range : Limited
Color primaries : BT.709
Transfer characteristics : BT.709
Matrix coefficients : BT.709
Codec configuration box : avcC

Audio
ID : 2
Format : AAC LC
Format/Info : Advanced Audio
Codec ID : mp4a-40-2
Duration : 41 min 57 s
Bit rate mode : Variable
Bit rate : 192 kb/s
Channel(s) : 2 channels
Channel layout : L R
Sampling rate : 48.0 kHz
Frame rate : 46.875 FPS (1024 SPF)
Compression mode : Lossy
Stream size : 57.7 MiB (2%)
Title : Stereo / Stereo
Language : English
Default : Yes
Alternate group : 1

WWE Most Wanted Treasures 

Complete name : WWE’s.Most.Wanted.Treasures.S01E05.Sgt.Slaughter.&.The.Iron.Sheik.720p.HDTV.x264-NWCHD.mp4
Format : MPEG-4
Format profile : Base Media
File size : 1.38 GiB
Duration : 41 min 57 s
Overall bit rate mode : Variable
Overall bit rate : 4 696 kb/s

Video
ID : 1
Format : AVC
Format/Info : Advanced Video
Duration : 41 min 57 s
Bit rate : 4 500 kb/s
Width : 1 280 pixels
Height : 720 pixels
Display aspect ratio : 16:9
Frame rate mode : Constant
Frame rate : 29.970 (30000/1001) FPS
Color space : YUV
Chroma subsampling : 4:2:0
Bit depth : 8 bits
Scan type : Progressive
Bits/(Pixel*Frame) : 0.163
Stream size : 1.32 GiB (96%)
Color range : Limited
Color primaries : BT.709
Transfer characteristics : BT.709
Matrix coefficients : BT.709
Codec configuration box : avcC

WWE Most Wanted Treasures 

Audio
ID : 2
Format : AAC LC
Format/Info : Advanced Audio
Codec ID : mp4a-40-2
Duration : 41 min 57 s
Bit rate mode : Variable
Bit rate : 192 kb/s
Channel(s) : 2 channels
Channel layout : L R
Sampling rate : 48.0 kHz
Frame rate : 46.875 FPS (1024 SPF)
Compression mode : Lossy
Stream size : 57.7 MiB (4%)
Title : Stereo / Stereo
Language : English
Default : Yes
Alternate group : 1

WWE Most Wanted Treasures 

 

[collapse]

 

 

https://dx-tv.com/

Leave a Reply

Your email address will not be published. Required fields are marked *

This site uses Akismet to reduce spam. Learn how your comment data is processed.