WWE Most Wanted Treasures S01E03 Jerry The King Lawler

WWE Most Wanted Treasures S01E03 Jerry The King Lawler DX-TV

WWE Most Wanted Treasures

 WWE Most Wanted Treasures

 

 

 

Download Links with High Speed


 

Dopapk

 

 

Show Links

 

http://shrt10.com/pwUTW

 

[collapse]

 

 

Nitroflare

 

 

Show Links

 

http://shrt10.com/yiUH83dlr

 

[collapse]

 

 

Rapidgator

 

 

Show Links

 

http://shrt10.com/t8Z0wleJ

 

[collapse]

 

 

Uploaded

 

 

Show Links

 

http://shrt10.com/9sU37S

 

[collapse]

 

 

Watch online

 

Server 1

 

 

 

 

WWE Most Wanted Treasures

 

 

 

 

Server-2

 

 

 

 

watch now

 

 

 

|Server-3

 

 

 

 

watch now

 

 

Uploaded By Site DX-TV.com

 

 

Show Info This Show

 

 

Complete name : WWE’s.Most.Wanted.Treasures.S01E03.Jerry.The.King.Lawler.720p.HDTV.x264-NWCHD.mp4
Format : MPEG-4
Format profile : Base Media
Codec ID : mp42
File size : 1.38 GiB
Duration : 41 min 59 s
Overall bit rate mode : Variable
Overall bit rate : 4 689 kb/s

WWE Most Wanted Treasures

Video
ID : 1
Format : AVC
Format/Info : Advanced Video
Duration : 41 min 59 s
Bit rate : 4 500 kb/s
Width : 1 280 pixels
Height : 720 pixels
Display aspect ratio : 16:9
Frame rate mode : Constant
Frame rate : 29.970 (30000/1001) FPS
Color space : YUV
Chroma subsampling : 4:2:0
Bit depth : 8 bits
Scan type : Progressive
Bits/(Pixel*Frame) : 0.163
Stream size : 1.32 GiB (96%)
Color range : Limited
Color primaries : BT.709
Transfer characteristics : BT.709
Matrix coefficients : BT.709
Codec configuration box : avcC

Audio
ID : 2
Format : AAC LC
Format/Info : Advanced Audio
Codec ID : mp4a-40-2
Duration : 41 min 58 s
Bit rate mode : Variable
Bit rate : 192 kb/s
Channel(s) : 2 channels
Channel layout : L R
Sampling rate : 48.0 kHz
Frame rate : 46.875 FPS (1024 SPF)
Compression mode : Lossy
Stream size : 57.7 MiB (4%)
Title : Stereo / Stereo
Language : English
Default : Yes
Alternate group : 1

WWE Most Wanted 

Audio
ID : 2
Format : AAC LC
Format/Info : Advanced Audio
Codec ID : mp4a-40-2
Duration : 41 min 58 s
Bit rate mode : Variable
Bit rate : 192 kb/s
Channel(s) : 2 channels
Channel layout : L R
Sampling rate : 48.0 kHz
Frame rate : 46.875 FPS (1024 SPF)
Compression mode : Lossy
Stream size : 57.7 MiB (4%)
Title : Stereo / Stereo
Language : English
Default : Yes
Alternate group : 1

 

 

Audio
ID : 2
Format : AAC LC
Format/Info : Advanced Audio
Codec ID : mp4a-40-2
Duration : 41 min 58 s
Bit rate mode : Variable
Bit rate : 192 kb/s
Channel(s) : 2 channels
Channel layout : L R
Sampling rate : 48.0 kHz
Frame rate : 46.875 FPS (1024 SPF)
Compression mode : Lossy
Stream size : 57.7 MiB (4%)
Title : Stereo / Stereo
Language : English
Default : Yes
Alternate group : 1

WWE Most Wanted 

 

Audio
ID : 2
Format : AAC LC
Format/Info : Advanced Audio
Codec ID : mp4a-40-2
Duration : 41 min 58 s
Bit rate mode : Variable
Bit rate : 192 kb/s
Channel(s) : 2 channels
Channel layout : L R
Sampling rate : 48.0 kHz
Frame rate : 46.875 FPS (1024 SPF)
Compression mode : Lossy
Stream size : 57.7 MiB (4%)
Title : Stereo / Stereo
Language : English
Default : Yes
Alternate group : 1

 

 

WWE Most Wanted 

[collapse]

 

 

https://dx-tv.com/