WWE Money In The Bank 2021 1080p Online Free Replay DX-TV

Contents show

WWE Money In The Bank 

 WE Money In The Bank 2021 1080p

 

 

 

Download Links with premium High Speed


Dopapk

 

 

Show Links

 

http://shrt10.com/oVIVQPj

 

[collapse]

 

 

Nitroflare

 

 

Show Links

 

http://shrt10.com/6cxlu3H

 

[collapse]

 

 

Rapidgator

 

 

Show Links

 

http://shrt10.com/D5L9l5

 

[collapse]

 

 

Uploaded

 

 

Show Links

 

 

[collapse]

 

 

Watch online

 

Server 1

 

 

 

 

WWE Money In The Bank 2021

 

 

 

 

Server-2

 

 

 

 

watch now

 

 

 

|Server-3

 

 

 

 

watch now

 

 

Uploaded By Site DX-TV.com

 

 

Show Info This Show

WWE Money In The Bank 

 

Complete name : WWE.Money.In.The.Bank.2021.1080p.WEB.h264-SPORTSNET.mkv
Format : Matroska
Format version : Version 4
File size : 11.1 GiB
Duration : 3 h 20 min
Overall bit rate : 7 939 kb/s

Video
ID : 1
Format : AVC
Format/Info : Advanced Video
Duration : 3 h 20 min
Bit rate : 7 808 kb/s
Width : 1 920 pixels
Height : 1 080 pixels
Display aspect ratio : 16:9
Frame rate mode : Constant
Frame rate : 30.000 FPS
Color space : YUV
Chroma subsampling : 4:2:0
Bit depth : 8 bits
Scan type : Progressive
Bits/(Pixel*Frame) : 0.126
Stream size : 10.8 GiB (98%)
Language : English
Default : Yes
Forced : No

WWE Money In The Bank 

Audio
ID : 2
Format : AAC LC
Format/Info : Advanced Audio
Codec ID : A_AAC-2
Duration : 3 h 20 min
Bit rate : 192 kb/s
Channel(s) : 2 channels
Channel layout : L R
Sampling rate : 48.0 kHz
Frame rate : 46.875 FPS
Compression mode : Lossy
Stream size : 276 MiB (2%)
Language : English
Default : Yes
Forced : No

WWE Money In The Bank 

Complete name : WWE.Money.In.The.Bank.2021.1080p.WEB.h264-SPORTSNET.mkv
Format : Matroska
Format version : Version 4
File size : 11.1 GiB
Duration : 3 h 20 min
Overall bit rate : 7 939 kb/s

Video
ID : 1
Format : AVC
Format/Info : Advanced Video
Duration : 3 h 20 min
Bit rate : 7 808 kb/s
Width : 1 920 pixels
Height : 1 080 pixels
Display aspect ratio : 16:9
Frame rate mode : Constant
Frame rate : 30.000 FPS
Color space : YUV
Chroma subsampling : 4:2:0
Bit depth : 8 bits
Scan type : Progressive
Bits/(Pixel*Frame) : 0.126
Stream size : 10.8 GiB (98%)
Language : English
Default : Yes
Forced : No

WWE Money In The Bank 

Audio
ID : 2
Format : AAC LC
Format/Info : Advanced Audio
Codec ID : A_AAC-2
Duration : 3 h 20 min
Bit rate : 192 kb/s
Channel(s) : 2 channels
Channel layout : L R
Sampling rate : 48.0 kHz
Frame rate : 46.875 FPS
Compression mode : Lossy
Stream size : 276 MiB (2%)
Language : English
Default : Yes
Forced : No

WWE Money In The Bank 

Complete name : WWE.Money.In.The.Bank.2021.1080p.WEB.h264-SPORTSNET.mkv
Format : Matroska
Format version : Version 4
File size : 11.1 GiB
Duration : 3 h 20 min
Overall bit rate : 7 939 kb/s

Video
ID : 1
Format : AVC
Format/Info : Advanced Video
Duration : 3 h 20 min
Bit rate : 7 808 kb/s
Width : 1 920 pixels
Height : 1 080 pixels
Display aspect ratio : 16:9
Frame rate mode : Constant
Frame rate : 30.000 FPS
Color space : YUV
Chroma subsampling : 4:2:0
Bit depth : 8 bits
Scan type : Progressive
Bits/(Pixel*Frame) : 0.126
Stream size : 10.8 GiB (98%)
Language : English
Default : Yes
Forced : No

WWE Money In The Bank 

Audio
ID : 2
Format : AAC LC
Format/Info : Advanced Audio
Codec ID : A_AAC-2
Duration : 3 h 20 min
Bit rate : 192 kb/s
Channel(s) : 2 channels
Channel layout : L R
Sampling rate : 48.0 kHz
Frame rate : 46.875 FPS
Compression mode : Lossy
Stream size : 276 MiB (2%)
Language : English
Default : Yes
Forced : No

WWE Money In The Bank 

Complete name : WWE.Money.In.The.Bank.2021.1080p.WEB.h264-SPORTSNET.mkv
Format : Matroska
Format version : Version 4
File size : 11.1 GiB
Duration : 3 h 20 min
Overall bit rate : 7 939 kb/s

Video
ID : 1
Format : AVC
Format/Info : Advanced Video
Duration : 3 h 20 min
Bit rate : 7 808 kb/s
Width : 1 920 pixels
Height : 1 080 pixels
Display aspect ratio : 16:9
Frame rate mode : Constant
Frame rate : 30.000 FPS
Color space : YUV
Chroma subsampling : 4:2:0
Bit depth : 8 bits
Scan type : Progressive
Bits/(Pixel*Frame) : 0.126
Stream size : 10.8 GiB (98%)
Language : English
Default : Yes
Forced : No

WWE Money In The Bank 

Audio
ID : 2
Format : AAC LC
Format/Info : Advanced Audio
Codec ID : A_AAC-2
Duration : 3 h 20 min
Bit rate : 192 kb/s
Channel(s) : 2 channels
Channel layout : L R
Sampling rate : 48.0 kHz
Frame rate : 46.875 FPS
Compression mode : Lossy
Stream size : 276 MiB (2%)
Language : English
Default : Yes
Forced : No

WWE Money In The Bank 

Complete name : WWE.Money.In.The.Bank.2021.1080p.WEB.h264-SPORTSNET.mkv
Format : Matroska
Format version : Version 4
File size : 11.1 GiB
Duration : 3 h 20 min
Overall bit rate : 7 939 kb/s

Video
ID : 1
Format : AVC
Format/Info : Advanced Video
Duration : 3 h 20 min
Bit rate : 7 808 kb/s
Width : 1 920 pixels
Height : 1 080 pixels
Display aspect ratio : 16:9
Frame rate mode : Constant
Frame rate : 30.000 FPS
Color space : YUV
Chroma subsampling : 4:2:0
Bit depth : 8 bits
Scan type : Progressive
Bits/(Pixel*Frame) : 0.126
Stream size : 10.8 GiB (98%)
Language : English
Default : Yes
Forced : No

WWE Money In The Bank 

Audio
ID : 2
Format : AAC LC
Format/Info : Advanced Audio
Codec ID : A_AAC-2
Duration : 3 h 20 min
Bit rate : 192 kb/s
Channel(s) : 2 channels
Channel layout : L R
Sampling rate : 48.0 kHz
Frame rate : 46.875 FPS
Compression mode : Lossy
Stream size : 276 MiB (2%)
Language : English
Default : Yes
Forced : No

WWE Money In The Bank 

Complete name : WWE.Money.In.The.Bank.2021.1080p.WEB.h264-SPORTSNET.mkv
Format : Matroska
Format version : Version 4
File size : 11.1 GiB
Duration : 3 h 20 min
Overall bit rate : 7 939 kb/s

Video
ID : 1
Format : AVC
Format/Info : Advanced Video
Duration : 3 h 20 min
Bit rate : 7 808 kb/s
Width : 1 920 pixels
Height : 1 080 pixels
Display aspect ratio : 16:9
Frame rate mode : Constant
Frame rate : 30.000 FPS
Color space : YUV
Chroma subsampling : 4:2:0
Bit depth : 8 bits
Scan type : Progressive
Bits/(Pixel*Frame) : 0.126
Stream size : 10.8 GiB (98%)
Language : English
Default : Yes
Forced : No

WWE Money In The Bank 

Audio
ID : 2
Format : AAC LC
Format/Info : Advanced Audio
Codec ID : A_AAC-2
Duration : 3 h 20 min
Bit rate : 192 kb/s
Channel(s) : 2 channels
Channel layout : L R
Sampling rate : 48.0 kHz
Frame rate : 46.875 FPS
Compression mode : Lossy
Stream size : 276 MiB (2%)
Language : English
Default : Yes
Forced : No

WWE Money In The Bank 

Complete name : WWE.Money.In.The.Bank.2021.1080p.WEB.h264-SPORTSNET.mkv
Format : Matroska
Format version : Version 4
File size : 11.1 GiB
Duration : 3 h 20 min
Overall bit rate : 7 939 kb/s

Video
ID : 1
Format : AVC
Format/Info : Advanced Video
Duration : 3 h 20 min
Bit rate : 7 808 kb/s
Width : 1 920 pixels
Height : 1 080 pixels
Display aspect ratio : 16:9
Frame rate mode : Constant
Frame rate : 30.000 FPS
Color space : YUV
Chroma subsampling : 4:2:0
Bit depth : 8 bits
Scan type : Progressive
Bits/(Pixel*Frame) : 0.126
Stream size : 10.8 GiB (98%)
Language : English
Default : Yes
Forced : No

WWE Money In The Bank 

Audio
ID : 2
Format : AAC LC
Format/Info : Advanced Audio
Codec ID : A_AAC-2
Duration : 3 h 20 min
Bit rate : 192 kb/s
Channel(s) : 2 channels
Channel layout : L R
Sampling rate : 48.0 kHz
Frame rate : 46.875 FPS
Compression mode : Lossy
Stream size : 276 MiB (2%)
Language : English
Default : Yes
Forced : No

WWE Money In The Bank 

Complete name : WWE.Money.In.The.Bank.2021.1080p.WEB.h264-SPORTSNET.mkv
Format : Matroska
Format version : Version 4
File size : 11.1 GiB
Duration : 3 h 20 min
Overall bit rate : 7 939 kb/s

Video
ID : 1
Format : AVC
Format/Info : Advanced Video
Duration : 3 h 20 min
Bit rate : 7 808 kb/s
Width : 1 920 pixels
Height : 1 080 pixels
Display aspect ratio : 16:9
Frame rate mode : Constant
Frame rate : 30.000 FPS
Color space : YUV
Chroma subsampling : 4:2:0
Bit depth : 8 bits
Scan type : Progressive
Bits/(Pixel*Frame) : 0.126
Stream size : 10.8 GiB (98%)
Language : English
Default : Yes
Forced : No

WWE Money In The Bank 

Audio
ID : 2
Format : AAC LC
Format/Info : Advanced Audio
Codec ID : A_AAC-2
Duration : 3 h 20 min
Bit rate : 192 kb/s
Channel(s) : 2 channels
Channel layout : L R
Sampling rate : 48.0 kHz
Frame rate : 46.875 FPS
Compression mode : Lossy
Stream size : 276 MiB (2%)
Language : English
Default : Yes
Forced : No

WWE Money In The Bank 

Complete name : WWE.Money.In.The.Bank.2021.1080p.WEB.h264-SPORTSNET.mkv
Format : Matroska
Format version : Version 4
File size : 11.1 GiB
Duration : 3 h 20 min
Overall bit rate : 7 939 kb/s

Video
ID : 1
Format : AVC
Format/Info : Advanced Video
Duration : 3 h 20 min
Bit rate : 7 808 kb/s
Width : 1 920 pixels
Height : 1 080 pixels
Display aspect ratio : 16:9
Frame rate mode : Constant
Frame rate : 30.000 FPS
Color space : YUV
Chroma subsampling : 4:2:0
Bit depth : 8 bits
Scan type : Progressive
Bits/(Pixel*Frame) : 0.126
Stream size : 10.8 GiB (98%)
Language : English
Default : Yes
Forced : No

WWE Money In The Bank 

Audio
ID : 2
Format : AAC LC
Format/Info : Advanced Audio
Codec ID : A_AAC-2
Duration : 3 h 20 min
Bit rate : 192 kb/s
Channel(s) : 2 channels
Channel layout : L R
Sampling rate : 48.0 kHz
Frame rate : 46.875 FPS
Compression mode : Lossy
Stream size : 276 MiB (2%)
Language : English
Default : Yes
Forced : No

WWE Money In The Bank 

Complete name : WWE.Money.In.The.Bank.2021.1080p.WEB.h264-SPORTSNET.mkv
Format : Matroska
Format version : Version 4
File size : 11.1 GiB
Duration : 3 h 20 min
Overall bit rate : 7 939 kb/s

Video
ID : 1
Format : AVC
Format/Info : Advanced Video
Duration : 3 h 20 min
Bit rate : 7 808 kb/s
Width : 1 920 pixels
Height : 1 080 pixels
Display aspect ratio : 16:9
Frame rate mode : Constant
Frame rate : 30.000 FPS
Color space : YUV
Chroma subsampling : 4:2:0
Bit depth : 8 bits
Scan type : Progressive
Bits/(Pixel*Frame) : 0.126
Stream size : 10.8 GiB (98%)
Language : English
Default : Yes
Forced : No

WWE Money In The Bank 

Audio
ID : 2
Format : AAC LC
Format/Info : Advanced Audio
Codec ID : A_AAC-2
Duration : 3 h 20 min
Bit rate : 192 kb/s
Channel(s) : 2 channels
Channel layout : L R
Sampling rate : 48.0 kHz
Frame rate : 46.875 FPS
Compression mode : Lossy
Stream size : 276 MiB (2%)
Language : English
Default : Yes
Forced : No

WWE Money In The Bank 

Complete name : WWE.Money.In.The.Bank.2021.1080p.WEB.h264-SPORTSNET.mkv
Format : Matroska
Format version : Version 4
File size : 11.1 GiB
Duration : 3 h 20 min
Overall bit rate : 7 939 kb/s

Video
ID : 1
Format : AVC
Format/Info : Advanced Video
Duration : 3 h 20 min
Bit rate : 7 808 kb/s
Width : 1 920 pixels
Height : 1 080 pixels
Display aspect ratio : 16:9
Frame rate mode : Constant
Frame rate : 30.000 FPS
Color space : YUV
Chroma subsampling : 4:2:0
Bit depth : 8 bits
Scan type : Progressive
Bits/(Pixel*Frame) : 0.126
Stream size : 10.8 GiB (98%)
Language : English
Default : Yes
Forced : No

WWE Money In The Bank 

Audio
ID : 2
Format : AAC LC
Format/Info : Advanced Audio
Codec ID : A_AAC-2
Duration : 3 h 20 min
Bit rate : 192 kb/s
Channel(s) : 2 channels
Channel layout : L R
Sampling rate : 48.0 kHz
Frame rate : 46.875 FPS
Compression mode : Lossy
Stream size : 276 MiB (2%)
Language : English
Default : Yes
Forced : No

WWE Money In The Bank 

Complete name : WWE.Money.In.The.Bank.2021.1080p.WEB.h264-SPORTSNET.mkv
Format : Matroska
Format version : Version 4
File size : 11.1 GiB
Duration : 3 h 20 min
Overall bit rate : 7 939 kb/s

Video
ID : 1
Format : AVC
Format/Info : Advanced Video
Duration : 3 h 20 min
Bit rate : 7 808 kb/s
Width : 1 920 pixels
Height : 1 080 pixels
Display aspect ratio : 16:9
Frame rate mode : Constant
Frame rate : 30.000 FPS
Color space : YUV
Chroma subsampling : 4:2:0
Bit depth : 8 bits
Scan type : Progressive
Bits/(Pixel*Frame) : 0.126
Stream size : 10.8 GiB (98%)
Language : English
Default : Yes
Forced : No

WWE Money In The Bank 

Audio
ID : 2
Format : AAC LC
Format/Info : Advanced Audio
Codec ID : A_AAC-2
Duration : 3 h 20 min
Bit rate : 192 kb/s
Channel(s) : 2 channels
Channel layout : L R
Sampling rate : 48.0 kHz
Frame rate : 46.875 FPS
Compression mode : Lossy
Stream size : 276 MiB (2%)
Language : English
Default : Yes
Forced : No

WWE Money In The Bank 

Complete name : WWE.Money.In.The.Bank.2021.1080p.WEB.h264-SPORTSNET.mkv
Format : Matroska
Format version : Version 4
File size : 11.1 GiB
Duration : 3 h 20 min
Overall bit rate : 7 939 kb/s

Video
ID : 1
Format : AVC
Format/Info : Advanced Video
Duration : 3 h 20 min
Bit rate : 7 808 kb/s
Width : 1 920 pixels
Height : 1 080 pixels
Display aspect ratio : 16:9
Frame rate mode : Constant
Frame rate : 30.000 FPS
Color space : YUV
Chroma subsampling : 4:2:0
Bit depth : 8 bits
Scan type : Progressive
Bits/(Pixel*Frame) : 0.126
Stream size : 10.8 GiB (98%)
Language : English
Default : Yes
Forced : No

WWE Money In The Bank 

Audio
ID : 2
Format : AAC LC
Format/Info : Advanced Audio
Codec ID : A_AAC-2
Duration : 3 h 20 min
Bit rate : 192 kb/s
Channel(s) : 2 channels
Channel layout : L R
Sampling rate : 48.0 kHz
Frame rate : 46.875 FPS
Compression mode : Lossy
Stream size : 276 MiB (2%)
Language : English
Default : Yes
Forced : No

WWE Money In The Bank 

Complete name : WWE.Money.In.The.Bank.2021.1080p.WEB.h264-SPORTSNET.mkv
Format : Matroska
Format version : Version 4
File size : 11.1 GiB
Duration : 3 h 20 min
Overall bit rate : 7 939 kb/s

Video
ID : 1
Format : AVC
Format/Info : Advanced Video
Duration : 3 h 20 min
Bit rate : 7 808 kb/s
Width : 1 920 pixels
Height : 1 080 pixels
Display aspect ratio : 16:9
Frame rate mode : Constant
Frame rate : 30.000 FPS
Color space : YUV
Chroma subsampling : 4:2:0
Bit depth : 8 bits
Scan type : Progressive
Bits/(Pixel*Frame) : 0.126
Stream size : 10.8 GiB (98%)
Language : English
Default : Yes
Forced : No

WWE Money In The Bank 

Audio
ID : 2
Format : AAC LC
Format/Info : Advanced Audio
Codec ID : A_AAC-2
Duration : 3 h 20 min
Bit rate : 192 kb/s
Channel(s) : 2 channels
Channel layout : L R
Sampling rate : 48.0 kHz
Frame rate : 46.875 FPS
Compression mode : Lossy
Stream size : 276 MiB (2%)
Language : English
Default : Yes
Forced : No

WWE Money In The Bank 

Complete name : WWE.Money.In.The.Bank.2021.1080p.WEB.h264-SPORTSNET.mkv
Format : Matroska
Format version : Version 4
File size : 11.1 GiB
Duration : 3 h 20 min
Overall bit rate : 7 939 kb/s

Video
ID : 1
Format : AVC
Format/Info : Advanced Video
Duration : 3 h 20 min
Bit rate : 7 808 kb/s
Width : 1 920 pixels
Height : 1 080 pixels
Display aspect ratio : 16:9
Frame rate mode : Constant
Frame rate : 30.000 FPS
Color space : YUV
Chroma subsampling : 4:2:0
Bit depth : 8 bits
Scan type : Progressive
Bits/(Pixel*Frame) : 0.126
Stream size : 10.8 GiB (98%)
Language : English
Default : Yes
Forced : No

WWE Money In The Bank 

Audio
ID : 2
Format : AAC LC
Format/Info : Advanced Audio
Codec ID : A_AAC-2
Duration : 3 h 20 min
Bit rate : 192 kb/s
Channel(s) : 2 channels
Channel layout : L R
Sampling rate : 48.0 kHz
Frame rate : 46.875 FPS
Compression mode : Lossy
Stream size : 276 MiB (2%)
Language : English
Default : Yes
Forced : No

WWE Money In The Bank 

Complete name : WWE.Money.In.The.Bank.2021.1080p.WEB.h264-SPORTSNET.mkv
Format : Matroska
Format version : Version 4
File size : 11.1 GiB
Duration : 3 h 20 min
Overall bit rate : 7 939 kb/s

Video
ID : 1
Format : AVC
Format/Info : Advanced Video
Duration : 3 h 20 min
Bit rate : 7 808 kb/s
Width : 1 920 pixels
Height : 1 080 pixels
Display aspect ratio : 16:9
Frame rate mode : Constant
Frame rate : 30.000 FPS
Color space : YUV
Chroma subsampling : 4:2:0
Bit depth : 8 bits
Scan type : Progressive
Bits/(Pixel*Frame) : 0.126
Stream size : 10.8 GiB (98%)
Language : English
Default : Yes
Forced : No

WWE Money In The Bank 

Audio
ID : 2
Format : AAC LC
Format/Info : Advanced Audio
Codec ID : A_AAC-2
Duration : 3 h 20 min
Bit rate : 192 kb/s
Channel(s) : 2 channels
Channel layout : L R
Sampling rate : 48.0 kHz
Frame rate : 46.875 FPS
Compression mode : Lossy
Stream size : 276 MiB (2%)
Language : English
Default : Yes
Forced : No

WWE Money In The Bank 

Complete name : WWE.Money.In.The.Bank.2021.1080p.WEB.h264-SPORTSNET.mkv
Format : Matroska
Format version : Version 4
File size : 11.1 GiB
Duration : 3 h 20 min
Overall bit rate : 7 939 kb/s

Video
ID : 1
Format : AVC
Format/Info : Advanced Video
Duration : 3 h 20 min
Bit rate : 7 808 kb/s
Width : 1 920 pixels
Height : 1 080 pixels
Display aspect ratio : 16:9
Frame rate mode : Constant
Frame rate : 30.000 FPS
Color space : YUV
Chroma subsampling : 4:2:0
Bit depth : 8 bits
Scan type : Progressive
Bits/(Pixel*Frame) : 0.126
Stream size : 10.8 GiB (98%)
Language : English
Default : Yes
Forced : No

WWE Money In The Bank 

Audio
ID : 2
Format : AAC LC
Format/Info : Advanced Audio
Codec ID : A_AAC-2
Duration : 3 h 20 min
Bit rate : 192 kb/s
Channel(s) : 2 channels
Channel layout : L R
Sampling rate : 48.0 kHz
Frame rate : 46.875 FPS
Compression mode : Lossy
Stream size : 276 MiB (2%)
Language : English
Default : Yes
Forced : No

WWE Money In The Bank 

Complete name : WWE.Money.In.The.Bank.2021.1080p.WEB.h264-SPORTSNET.mkv
Format : Matroska
Format version : Version 4
File size : 11.1 GiB
Duration : 3 h 20 min
Overall bit rate : 7 939 kb/s

Video
ID : 1
Format : AVC
Format/Info : Advanced Video
Duration : 3 h 20 min
Bit rate : 7 808 kb/s
Width : 1 920 pixels
Height : 1 080 pixels
Display aspect ratio : 16:9
Frame rate mode : Constant
Frame rate : 30.000 FPS
Color space : YUV
Chroma subsampling : 4:2:0
Bit depth : 8 bits
Scan type : Progressive
Bits/(Pixel*Frame) : 0.126
Stream size : 10.8 GiB (98%)
Language : English
Default : Yes
Forced : No

WWE Money In The Bank 

Audio
ID : 2
Format : AAC LC
Format/Info : Advanced Audio
Codec ID : A_AAC-2
Duration : 3 h 20 min
Bit rate : 192 kb/s
Channel(s) : 2 channels
Channel layout : L R
Sampling rate : 48.0 kHz
Frame rate : 46.875 FPS
Compression mode : Lossy
Stream size : 276 MiB (2%)
Language : English
Default : Yes
Forced : No

WWE Money In The Bank 

Complete name : WWE.Money.In.The.Bank.2021.1080p.WEB.h264-SPORTSNET.mkv
Format : Matroska
Format version : Version 4
File size : 11.1 GiB
Duration : 3 h 20 min
Overall bit rate : 7 939 kb/s

Video
ID : 1
Format : AVC
Format/Info : Advanced Video
Duration : 3 h 20 min
Bit rate : 7 808 kb/s
Width : 1 920 pixels
Height : 1 080 pixels
Display aspect ratio : 16:9
Frame rate mode : Constant
Frame rate : 30.000 FPS
Color space : YUV
Chroma subsampling : 4:2:0
Bit depth : 8 bits
Scan type : Progressive
Bits/(Pixel*Frame) : 0.126
Stream size : 10.8 GiB (98%)
Language : English
Default : Yes
Forced : No

WWE Money In The Bank 

Audio
ID : 2
Format : AAC LC
Format/Info : Advanced Audio
Codec ID : A_AAC-2
Duration : 3 h 20 min
Bit rate : 192 kb/s
Channel(s) : 2 channels
Channel layout : L R
Sampling rate : 48.0 kHz
Frame rate : 46.875 FPS
Compression mode : Lossy
Stream size : 276 MiB (2%)
Language : English
Default : Yes
Forced : No

WWE Money In The Bank 

Complete name : WWE.Money.In.The.Bank.2021.1080p.WEB.h264-SPORTSNET.mkv
Format : Matroska
Format version : Version 4
File size : 11.1 GiB
Duration : 3 h 20 min
Overall bit rate : 7 939 kb/s

Video
ID : 1
Format : AVC
Format/Info : Advanced Video
Duration : 3 h 20 min
Bit rate : 7 808 kb/s
Width : 1 920 pixels
Height : 1 080 pixels
Display aspect ratio : 16:9
Frame rate mode : Constant
Frame rate : 30.000 FPS
Color space : YUV
Chroma subsampling : 4:2:0
Bit depth : 8 bits
Scan type : Progressive
Bits/(Pixel*Frame) : 0.126
Stream size : 10.8 GiB (98%)
Language : English
Default : Yes
Forced : No

WWE Money In The Bank 

Audio
ID : 2
Format : AAC LC
Format/Info : Advanced Audio
Codec ID : A_AAC-2
Duration : 3 h 20 min
Bit rate : 192 kb/s
Channel(s) : 2 channels
Channel layout : L R
Sampling rate : 48.0 kHz
Frame rate : 46.875 FPS
Compression mode : Lossy
Stream size : 276 MiB (2%)
Language : English
Default : Yes
Forced : No

WWE Money In The Bank 

Complete name : WWE.Money.In.The.Bank.2021.1080p.WEB.h264-SPORTSNET.mkv
Format : Matroska
Format version : Version 4
File size : 11.1 GiB
Duration : 3 h 20 min
Overall bit rate : 7 939 kb/s

Video
ID : 1
Format : AVC
Format/Info : Advanced Video
Duration : 3 h 20 min
Bit rate : 7 808 kb/s
Width : 1 920 pixels
Height : 1 080 pixels
Display aspect ratio : 16:9
Frame rate mode : Constant
Frame rate : 30.000 FPS
Color space : YUV
Chroma subsampling : 4:2:0
Bit depth : 8 bits
Scan type : Progressive
Bits/(Pixel*Frame) : 0.126
Stream size : 10.8 GiB (98%)
Language : English
Default : Yes
Forced : No

WWE Money In The Bank 

Audio
ID : 2
Format : AAC LC
Format/Info : Advanced Audio
Codec ID : A_AAC-2
Duration : 3 h 20 min
Bit rate : 192 kb/s
Channel(s) : 2 channels
Channel layout : L R
Sampling rate : 48.0 kHz
Frame rate : 46.875 FPS
Compression mode : Lossy
Stream size : 276 MiB (2%)
Language : English
Default : Yes
Forced : No

WWE Money In The Bank 

Complete name : WWE.Money.In.The.Bank.2021.1080p.WEB.h264-SPORTSNET.mkv
Format : Matroska
Format version : Version 4
File size : 11.1 GiB
Duration : 3 h 20 min
Overall bit rate : 7 939 kb/s

Video
ID : 1
Format : AVC
Format/Info : Advanced Video
Duration : 3 h 20 min
Bit rate : 7 808 kb/s
Width : 1 920 pixels
Height : 1 080 pixels
Display aspect ratio : 16:9
Frame rate mode : Constant
Frame rate : 30.000 FPS
Color space : YUV
Chroma subsampling : 4:2:0
Bit depth : 8 bits
Scan type : Progressive
Bits/(Pixel*Frame) : 0.126
Stream size : 10.8 GiB (98%)
Language : English
Default : Yes
Forced : No

WWE Money In The Bank 

Audio
ID : 2
Format : AAC LC
Format/Info : Advanced Audio
Codec ID : A_AAC-2
Duration : 3 h 20 min
Bit rate : 192 kb/s
Channel(s) : 2 channels
Channel layout : L R
Sampling rate : 48.0 kHz
Frame rate : 46.875 FPS
Compression mode : Lossy
Stream size : 276 MiB (2%)
Language : English
Default : Yes
Forced : No

WWE Money In The Bank 

Complete name : WWE.Money.In.The.Bank.2021.1080p.WEB.h264-SPORTSNET.mkv
Format : Matroska
Format version : Version 4
File size : 11.1 GiB
Duration : 3 h 20 min
Overall bit rate : 7 939 kb/s

Video
ID : 1
Format : AVC
Format/Info : Advanced Video
Duration : 3 h 20 min
Bit rate : 7 808 kb/s
Width : 1 920 pixels
Height : 1 080 pixels
Display aspect ratio : 16:9
Frame rate mode : Constant
Frame rate : 30.000 FPS
Color space : YUV
Chroma subsampling : 4:2:0
Bit depth : 8 bits
Scan type : Progressive
Bits/(Pixel*Frame) : 0.126
Stream size : 10.8 GiB (98%)
Language : English
Default : Yes
Forced : No

WWE Money In The Bank 

Audio
ID : 2
Format : AAC LC
Format/Info : Advanced Audio
Codec ID : A_AAC-2
Duration : 3 h 20 min
Bit rate : 192 kb/s
Channel(s) : 2 channels
Channel layout : L R
Sampling rate : 48.0 kHz
Frame rate : 46.875 FPS
Compression mode : Lossy
Stream size : 276 MiB (2%)
Language : English
Default : Yes
Forced : No

WWE Money In The Bank 

Complete name : WWE.Money.In.The.Bank.2021.1080p.WEB.h264-SPORTSNET.mkv
Format : Matroska
Format version : Version 4
File size : 11.1 GiB
Duration : 3 h 20 min
Overall bit rate : 7 939 kb/s

Video
ID : 1
Format : AVC
Format/Info : Advanced Video
Duration : 3 h 20 min
Bit rate : 7 808 kb/s
Width : 1 920 pixels
Height : 1 080 pixels
Display aspect ratio : 16:9
Frame rate mode : Constant
Frame rate : 30.000 FPS
Color space : YUV
Chroma subsampling : 4:2:0
Bit depth : 8 bits
Scan type : Progressive
Bits/(Pixel*Frame) : 0.126
Stream size : 10.8 GiB (98%)
Language : English
Default : Yes
Forced : No

WWE Money In The Bank 

Audio
ID : 2
Format : AAC LC
Format/Info : Advanced Audio
Codec ID : A_AAC-2
Duration : 3 h 20 min
Bit rate : 192 kb/s
Channel(s) : 2 channels
Channel layout : L R
Sampling rate : 48.0 kHz
Frame rate : 46.875 FPS
Compression mode : Lossy
Stream size : 276 MiB (2%)
Language : English
Default : Yes
Forced : No

WWE Money In The Bank 

 

[collapse]

 

 

https://dx-tv.com/

Leave a Reply

Your email address will not be published. Required fields are marked *

This site uses Akismet to reduce spam. Learn how your comment data is processed.

Previous Post
PBC Boxing Charlo vs Castano

PBC Boxing Charlo vs Castano 2021 July 17 1080i Free

Next Post
wwe raw 2021

WWE RAW Free 2021 07 19 Live Stream