WWE Money in the Bank 2018 PPV 720p HDTV Ebi Download

WWE Money in the Bank 2018 PPV 720p HDTV Ebi Download

 

 

 

 


 

 

dx-tv.com

 

 

 

 

 

Complete name : WWE.Money.in.the.Bank.2018.PPV.720p.HDTV.x264-Ebi.mp4
Format : MPEG-4
Format profile : Base Media / Version 2
Codec ID : mp42
File size : 8.35 GiB
Duration : 4h 14mn
Overall bit rate : 4 699 Kbps
Encoded date : UTC 2018-06-18 05:16:06
Tagged date : UTC 2018-06-18 05:16:06

Video
ID : 1
Format : AVC
Format/Info : Advanced Video Codec
Codec ID : avc1
Codec ID/Info : Advanced Video Coding
Duration : 4h 14mn
Bit rate mode : Variable
Bit rate : 4 500 Kbps
Width : 1 280 pixels
Height : 720 pixels
Display aspect ratio : 16:9
Frame rate mode : Constant
Frame rate : 29.970 fps
Color space : YUV
Chroma subsampling : 4:2:0
Bit depth : 8 bits
Scan type : Progressive
Bits/(Pixel*Frame) : 0.163
Stream size : 7.99 GiB (96%)

Audio
ID : 2
Format : AAC
Format/Info : Advanced Audio Codec
Format profile : LC
Codec ID : 40
Duration : 4h 14mn
Bit rate mode : Variable
Bit rate : 192 Kbps
Channel(s) : 2 channels
Channel positions : Front: L R
Sampling rate : 48.0 KHz
Compression mode : Lossy
Stream size : 350 MiB (4%)
Title : Stereo
Encoded date : UTC 2018-06-18 05:16:06
Tagged date : UTC 2018-06-18 05:16:06

 

 

 

 

 

 

 

 

WWE Money in the Bank 2018 PPV 720p HDTV Ebi Download

 

 

 

 

 

 

 

Uploaded By Site DX-TV.com

 

 

 

open rar file to see this password

 

 

 

 

The password : DX-TV.com

 

 

 

 

720p

 

 

 

 

 

Uploaded.net + rapidgator.net

 

 

 

 

 

 
http://shrt10.com/FyrZs8l
 

http://shrt10.com/k7Ncl
 

http://shrt10.com/lE9i1F

 
http://shrt10.com/SIbCHKK3
 

 

 

 

 

 

 

WWE Money in the Bank 2018 PPV 720p HDTV Ebi Download