WWE Monday Night Raw 2021 09 27 Full Show Replay

WWE Monday Night Raw 2021 09 27 1080p Full Show Online Free Replay DX-TV

WWE Monday Night Raw

 WWE Monday Night Raw

 

 

 

Download Links with premium High Speed
 

 


 

Dopapk

 

 

Show Links

 

 

http://shrt10.com/N5enMlW
http://shrt10.com/KTdF4u
http://shrt10.com/Az3kP

 

 

 

 

 

Nitroflare

 

 

Show Links

 

 

http://shrt10.com/45eo291
http://shrt10.com/nv7P2
http://shrt10.com/WXYMfbpzU

 

 

 

 

Rapidgator

 

 

Show Links

 

 

http://shrt10.com/xcAZjG5G6
http://shrt10.com/AQ7QP6
http://shrt10.com/1RgXUrB

 

 

 

 

 

Uploaded
 

 

 

Show Links

 

 

 

 

 

 

 

 

 

Watch online

 

Server 1

 

 

 

 

watch now

 

 

 

 

Server-2

 

 

 

 

watch now

 

 

 

|Server-3

 

 

 

 

watch now

 

 

Uploaded By Site DX-TV.com

 

 

Open Info Show

 

 

General
Complete name :  \WWE.Monday.Night.Raw.2021.09.27.720p.HDTV.x264-NWCHD.mp4
Format : MPEG-4
Format profile : Base Media
Codec ID : isom (isom/iso2/avc1/mp41)
File size : 4.27 GiB
Duration : 2 h 9 min
Overall bit rate : 4 724 kb/s

Video
ID : 1
Format : AVC
Format/Info : Advanced Video Codec 
Duration : 2 h 9 min
Bit rate : 4 522 kb/s
Width : 1 280 pixels
Height : 720 pixels
Display aspect ratio : 16:9
Frame rate mode : Variable
Frame rate : 29.970 (30000/1001) FPS
Minimum frame rate : 20.422 FPS
Maximum frame rate : 29.970 FPS
Color space : YUV
Chroma subsampling : 4:2:0
Bit depth : 8 bits
Scan type : Progressive
Bits/(Pixel*Frame) : 0.164
Stream size : 4.09 GiB (96%)
Color range : Limited
Color primaries : BT.709
Transfer characteristics : BT.709
Matrix coefficients : BT.709
Codec configuration box : avcC

WWE Monday Night Raw

Audio
ID : 2
Format : AAC LC
Format/Info : Advanced Audio Codec Low Complexity
Codec ID : mp4a-40-2
Duration : 2 h 9 min
Bit rate mode : Constant
Bit rate : 192 kb/s
Channel(s) : 2 channels
Channel layout : L R
Sampling rate : 48.0 kHz
Frame rate : 46.875 FPS (1024 SPF)
Compression mode : Lossy
Stream size : 178 MiB (4%)
Title : Stereo
Language : English
Default : Yes
Alternate group : 1

Complete name : WWE.Monday.Night.Raw.2021.09.27.1080p.HDTV.x264-NWCHD.mp4
Format : MPEG-4
Format profile : Base Media
Codec ID : isom
File size : 7.45 GiB
Duration : 2 h 9 min
Overall bit rate : 8 239 kb/s

Video
ID : 1
Format : AVC
Format/Info : Advanced Video Codec
Duration : 2 h 9 min
Bit rate : 8 037 kb/s
Width : 1 920 pixels
Height : 1 080 pixels
Display aspect ratio : 16:9
Frame rate mode : Variable
Frame rate : 29.970 (30000/1001) FPS
Minimum frame rate : 20.422 FPS
Maximum frame rate : 29.970 FPS
Color space : YUV
Chroma subsampling : 4:2:0
Bit depth : 8 bits
Scan type : Progressive
Bits/(Pixel*Frame) : 0.129
Stream size : 7.26 GiB (98%)
Color primaries : BT.709
Transfer characteristics : BT.709
Matrix coefficients : BT.709
Codec configuration box : avcC

WWE Monday Night Raw

Audio
ID : 2
Format : AAC LC
Codec ID : mp4a-40-2
Duration : 2 h 9 min
Bit rate mode : Constant
Bit rate : 192 kb/s
Channel(s) : 2 channels
Channel layout : L R
Sampling rate : 48.0 kHz
Frame rate : 46.875 FPS (1024 SPF)
Compression mode : Lossy
Stream size : 178 MiB (2%)
Title : Stereo
Language : English
Default : Yes
Alternate group : 1

Complete name : WWE.Monday.Night.Raw.2021.09.27.HDTV.x264-NWCHD.mp4
Format : MPEG-4
Format profile : Base Media
File size : 1.45 GiB
Duration : 2 h 9 min
Overall bit rate : 1 607 kb/s

Video
ID : 1
Duration : 2 h 9 min
Bit rate : 1 408 kb/s
Width : 704 pixels
Height : 400 pixels
Display aspect ratio : 16:9
Frame rate mode : Variable
Frame rate : 29.970 (30000/1001) FPS
Minimum frame rate : 20.422 FPS
Maximum frame rate : 29.970 FPS
Color space : YUV
Chroma subsampling : 4:2:0
Bit depth : 8 bits
Scan type : Progressive
Bits/(Pixel*Frame) : 0.167
Stream size : 1.27 GiB (88%)
Color primaries : BT.709
Transfer characteristics : BT.709
Matrix coefficients : BT.709
Codec configuration box : avcC

WWE Monday Night Raw

Audio
ID : 2
Format : AAC LC
Format/Info : Advanced Audio Codec Low Complexity
Codec ID : mp4a-40-2
Duration : 2 h 9 min
Bit rate mode : Constant
Bit rate : 192 kb/s
Channel(s) : 2 channels
Channel layout : L R
Sampling rate : 48.0 kHz
Frame rate : 46.875 FPS (1024 SPF)
Compression mode : Lossy
Stream size : 178 MiB (12%)
Title : Stereo
Language : English
Default : Yes
Alternate group : 1

 

 

https://dx-tv.com/

 

 

 

 

 

You May Also Like

Leave a Reply

Your email address will not be published. Required fields are marked *

This site uses Akismet to reduce spam. Learn how your comment data is processed.