WWE Monday Night Raw 2020 12 21 Free Online 720p DX-TV

WWE Monday Night Raw 2020 12 21 Star /720p DX-TV

WWE Monday Night Raw 2020 12 21

 WWE Monday Night Raw 2020 12 21

 

Download Links with premium High Speed   

 

 

nitroflare.com

http://shrt10.com/UIfwnFuC
http://shrt10.com/kK8fMhdcD

 

 

rapidgator.net

http://shrt10.com/d77sr
http://shrt10.com/LDdsIM

 

 

uploaded.net

http://shrt10.com/z4ooZKQih
http://shrt10.com/FwmB3M3cZ

 

 

uploadgig.com

http://shrt10.com/eQmWze2GE
http://shrt10.com/Th8ahRGz

 

Watch online

 

Server 1

 

 

 

 

Watch WWE Raw 2020 DEC 21

 

 

 

 

Server-2

 

 

 

 

watch now

 

 

Uploaded By Site DX-TV.com

 

 

 

[su_expand more_text=”Show More Info” less_text=”Close all Info” height=”50″ text_color=”#000000″ link_color=”#e25f8b” link_style=”button” more_icon=”icon: arrow-down” less_icon=”icon: arrow-up”]
Complete name : WWE.Monday.Night.Raw.2020.12.21.HDTV.x264-Star.mp4
Format : MPEG-4
Format profile : Base Media
File size : 1.33 GiB
Duration : 2 h 13 min
Overall bit rate : 1 425 kb/s

Monday Night Raw 2020 12 21

Video
ID : 1
Format : AVC
Duration : 2 h 13 min
Source duration : 2 h 13 min
Bit rate : 1 300 kb/s
Width : 720 pixels
Height : 480 pixels
Display aspect ratio : 16:9
Original display aspect rat : 16:9
Frame rate mode : Constant
Frame rate : 29.970 (30000/1001) FPS
Standard : NTSC
Color space : YUV
Chroma subsampling : 4:2:0
Bit depth : 8 bits
Scan type : Progressive
Bits/(Pixel*Frame) : 0.126
Stream size : 1.21 GiB (92%)
Source stream size : 1.21 GiB (92%)
Color range : Limited
Color primaries : BT.601 NTSC
Transfer characteristics : BT.709
Matrix coefficients : BT.601
Codec configuration box : avcC

 Monday Night Raw 

Audio
ID : 2
Format : AAC LC
Codec ID : mp4a-40-2
Duration : 2 h 13 min
Bit rate mode : Constant
Bit rate : 112 kb/s
Channel(s) : 2 channels
Channel layout : L R
Sampling rate : 48.0 kHz
Frame rate : 46.875 FPS (1024 SPF)
Compression mode : Lossy
Stream size : 106 MiB (8%)
Title : Stereo
Default : Yes
Alternate group : 1

Complete name :  .Monday.Night.Raw.2020.12.21.720p.HDTV.x264-Star.mkv
Format : Matroska
Format version : Version 4
File size : 3.86 GiB
Duration : 2 h 13 min
Overall bit rate : 4 142 kb/s

WWE Monday Night  

Video
ID : 1
Format : AVC
Duration : 2 h 13 min
Bit rate : 4 000 kb/s
Width : 1 280 pixels
Height : 720 pixels
Display aspect ratio : 16:9
Frame rate mode : Constant
Frame rate : 29.970 (30000/1001) FPS
Color space : YUV
Chroma subsampling : 4:2:0
Bit depth : 8 bits
Scan type : Progressive
Bits/(Pixel*Frame) : 0.145
Stream size : 3.66 GiB (95%)
Forced : No
Color range : Limited
Color primaries : BT.709
Transfer characteristics : BT.709
Matrix coefficients : BT.709

 Raw 2020 12 21

Audio
ID : 2
Format : AC-3
Format/Info : Audio Coding 3
Commercial name : Dolby Digital
Codec ID : A_AC3
Duration : 2 h 13 min
Bit rate mode : Constant
Bit rate : 128 kb/s
Channel(s) : 2 channels
Channel layout : L R
Sampling rate : 48.0 kHz
Frame rate : 31.250 FPS (1536 SPF)
Compression mode : Lossy
Delay relative to video : -5 ms
Stream size : 122 MiB (3%)
Title : Stereo
Service kind : Complete Main
Default : Yes
Forced : No

 

[/su_expand]

 

https://dx-tv.com/

Leave a Reply

Your email address will not be published. Required fields are marked *

This site uses Akismet to reduce spam. Learn how your comment data is processed.