WWE Monday Night Raw 2020 02 10 720p

Watch WWE Monday Night Raw 2020 02 10 720p DX-TV

 

WWE Monday Night

 

 WWE RAW

 

  

 

WWE Monday Night Raw 2020 02 10 720p

 

Complete name : WWE.Monday.Night.Raw.2020.02.10.720p.HDTV.x264-NWCHD.mp4
Format : MPEG-4
Format profile : WWE   
File size : 4.36 GiB
Duration : 2 h 12 min
Overall bit rate : 4 694 kb/s
Writing application : Lavf58.27.103

Video
ID : 1
Format : AVC
Duration : 2 h 12 min
Bit rate : 4 500 kb/s
Width : 1 280 pixels
Height : 720 pixels WWE  
Display aspect ratio : 16:9
Frame rate mode : Variable
Frame rate : 29.970 (30000/1001) FPS
Minimum frame rate : 20.633 FPS
Maximum frame rate : 29.970 FPS
Color space : YUV
Chroma subsampling : 4:2:0
Bit depth : 8 bits
Scan type : Progressive
Bits/(Pixel*Frame) : 0.163
Stream size : 4.17 GiB (96%)
Color primaries : BT.709
Transfer characteristics : BT.709
Matrix coefficients : BT.709 WWE Monday 
Codec configuration box : avcC

Audio
ID : 2
Format : AAC LC
Format/Info : Advanced Audio Codec Low Complexity
Codec ID : mp4a-40-2
Duration : 2 h 12 min
Bit rate mode :  Monday Night
Bit rate : 192 kb/s
Channel(s) : 2 channels
Channel layout : L R
Sampling rate : 48.0 kHz
Frame rate : 46.875 FPS (1024 SPF)
Compression mode : Lossy
Stream size : 182 MiB (4%)
Title : Stereo
Default : Yes
Alternate group : 1

WWE Monday  

 

 

Watch online

 

 

Waiting finish converting video

 

 

Server 1

 

 

 

watch now

 

 

 

 

WWE Monday Night Raw 2020 02 10 720p

 

 

 

Uploaded By Site DX-TV.com

 

 

 

 

 

1fichier.com 

https://shrt10.com/1B3sptYPd
https://shrt10.com/6E2N6L2DA
https://shrt10.com/opLSs3jmW

 

DDL.to

 https://shrt10.com/kNR1vr
https://shrt10.com/FwtlGac
https://shrt10.com/OEjs1d

 

earn4files.com

https://shrt10.com/7lT0f
https://shrt10.com/AE7GXA8
https://shrt10.com/xoykf

 

rockfile.co

https://shrt10.com/F2u5X
https://shrt10.com/B1Y2393
https://shrt10.com/Et2CE

 

 

Download with premium account Links 

 

 

Keep2Share

 

 

nitroflare.com

 

 

rapidgator.net

 

 

uploadgig.com

 

 

 

dx-tv.com

 

You May Also Like