WWE Main Event Watch Online 2020 12 24 1080p DX-TV

WWE Main Event Watch Online 2020 12 24 1080p DX-TV

WWE Main Event Watch Online

 WWE Main Event Watch Online

 

Download Links with premium High Speed   

 

 

 

nitroflare.com

http://shrt10.com/mCDW2BYc5

 

 

rapidgator.net

http://shrt10.com/XpJEkQcCy

 

 

uploaded.net

http://shrt10.com/EuEnrScqc

 

 

uploadgig.com

http://shrt10.com/xdoY8

 

 

 

Watch online

 

Server 1

 

 

 

 

WWE Main Event Watch Online

 

 

 

 

Server-2

 

 

 

 

watch now

 

 

Uploaded By Site DX-TV.com

 

WWE Main Event 

 

[su_expand more_text=”Show More Info” less_text=”Close all Info” height=”50″ text_color=”#000000″ link_color=”#e25f8b” link_style=”button” more_icon=”icon: arrow-down” less_icon=”icon: arrow-up”]

Complete name : WWE.Main.Event.2020.12.24.1080p.Hulu.x264-Star.mkv
Format : Matroska
Format version : Version 4
File size : 2.41 GiB
Duration : 42 min 25 s
Overall bit rate : 8 142 kb/s

WWE Main Event Watch Online

Video
ID : 1
Format : AVC
Codec ID : V_MPEG4
Duration : 42 min 25 s
Bit rate : 8 000 kb/s
Width : 1 920 pixels
Height : 1 080 pixels
Display aspect ratio : 16:9
Frame rate mode : Constant
Frame rate : 29.970 (30000/1001) FPS
Color space : YUV
Chroma subsampling : 4:2:0
Bit depth : 8 bits
Scan type : Progressive
Bits/(Pixel*Frame) : 0.129
Stream size : 2.33 GiB (96%)
Default : Yes
Forced : No
Color range : Limited
Color primaries : BT.709
Transfer characteristics : BT.709
Matrix coefficients : BT.709

WWE Main Event  

Audio
ID : 2
Format : AC-3
Format/Info : Audio Coding 3
Commercial name : Dolby Digital
Codec ID : A_AC3
Duration : 42 min 25 s
Bit rate mode : Constant
Bit rate : 128 kb/s
Channel(s) : 2 channels
Channel layout : L R
Sampling rate : 48.0 kHz
Frame rate : 31.250 FPS (1536 SPF)
Compression mode : Lossy
Delay relative to video : -5 ms
Stream size : 38.8 MiB (2%)
Title : Stereo
Service kind : Complete Main
Default : Yes
Forced : No

WWE Main Event Watch  

Format : AC-3
Format/Info : Audio Coding 3
Commercial name : Dolby Digital
Codec ID : A_AC3
Duration : 42 min 25 s
Bit rate mode : Constant
Bit rate : 128 kb/s
Channel(s) : 2 channels
Channel layout : L R
Sampling rate : 48.0 kHz
Frame rate : 31.250 FPS (1536 SPF)
Compression mode : Lossy
Delay relative to video : -5 ms
Stream size : 38.8 MiB (2%)
Title : Stereo
Service kind : Complete Main
Default : Yes
Forced : No

WWE Main Event Watch Online

[/su_expand]

 

https://dx-tv.com/