WWE Main Event Online Replay 2021 04 30 720p

WWE Main Event Online Replay 2021 04 30 720p DX-TV

WWE Main Event Online

 WWE Main Event Online

 

 

 

Download Links with High Speed


 

Dopapk

 

 

Show Links

 

http://shrt10.com/ev4YY2h5
http://shrt10.com/TbiZra

 

[collapse]

 

 

Nitroflare

 

 

Show Links

 

http://shrt10.com/X55sGR6U
http://shrt10.com/3tBJ5

 

[collapse]

 

 

Rapidgator

 

 

Show Links

 

http://shrt10.com/4V7Xbv
http://shrt10.com/A4JSN1cB9

 

[collapse]

 

 

Uploaded

 

 

Show Links

 

http://shrt10.com/nhvbg1
http://shrt10.com/4H7Fhh6

 

[collapse]

 

 

Watch online

 

Server 1

 

 

 

 

watch now

 

 

 

 

Server-2

 

 

 

 

WWE Main Event Online

 

 

 

|Server-3

 

 

 

 

watch now

 

 

Uploaded By Site DX-TV.com

 

 

Show Info This Show

 

 

Complete name : WWE.Main.Event.2021.04.30.720p.Hulu.x264-Star.mkv
Format : Matroska
Format version : Version 4
File size : 1.54 GiB
Duration : 53 min 41 s
Overall bit rate : 4 111 kb/s

WWE Main Event Online

Video
ID : 1
Format : AVC
Codec ID : V_MPEG4/ISO/AVC
Duration : 53 min 41 s
Bit rate : 4 000 kb/s
Width : 1 280 pixels
Height : 720 pixels
Display aspect ratio : 16:9
Frame rate mode : Constant
Frame rate : 29.970 (30000/1001) FPS
Color space : YUV
Chroma subsampling : 4:2:0
Bit depth : 8 bits
Scan type : Progressive
Bits/(Pixel*Frame) : 0.145
Stream size : 1.46 GiB (95%)
Forced : No
Color range : Limited
Color primaries : BT.709
Transfer characteristics : BT.709
Matrix coefficients : BT.709

Audio
ID : 2
Format : AC-3
Format/Info : Audio Coding 3
Commercial name : Dolby Digital
Codec ID : A_AC3
Duration : 53 min 41 s
Bit rate mode : Constant
Bit rate : 128 kb/s
Channel(s) : 2 channels
Channel layout : L R
Sampling rate : 48.0 kHz
Frame rate : 31.250 FPS
Compression mode : Lossy
Delay relative to video : -5 ms
Stream size : 49.2 MiB (3%)
Title : Stereo
Service kind : Complete Main
Default : Yes
Forced : No

WWE Main Event

Complete name : WWE.Main.Event.2021.04.30.1080p.Hulu.x264-Star.mkv
Format : Matroska
Format version : Version 4
File size : 3.04 GiB
Duration : 53 min 41 s
Overall bit rate : 8 092 kb/s

Video
ID : 1
Format : AVC
Codec ID : V_MPEG4/ISO/AVC
Duration : 53 min 41 s
Bit rate : 8 000 kb/s
Width : 1 920 pixels
Height : 1 080 pixels
Display aspect ratio : 16:9
Frame rate mode : Constant
Frame rate : 29.970 (30000/1001) FPS
Color space : YUV
Chroma subsampling : 4:2:0
Bit depth : 8 bits
Scan type : Progressive
Bits/(Pixel*Frame) : 0.129
Stream size : 2.93 GiB (96%)
Forced : No
Color range : Limited
Color primaries : BT.709
Transfer characteristics : BT.709
Matrix coefficients : BT.709

WWE Main Event

Audio
ID : 2
Format : AC-3
Format/Info : Audio Coding 3
Commercial name : Dolby Digital
Codec ID : A_AC3
Duration : 53 min 41 s
Bit rate mode : Constant
Bit rate : 128 kb/s
Channel(s) : 2 channels
Channel layout : L R
Sampling rate : 48.0 kHz
Frame rate : 31.250 FPS
Compression mode : Lossy
Delay relative to video : -5 ms
Stream size : 49.2 MiB (2%)
Title : Stereo
Service kind : Complete Main
Default : Yes
Forced : No

WWE Main Event

 

[collapse]

 

 

https://dx-tv.com/