WWE Main Event Online Replay 2021 04 23 1080p

WWE Main Event Online Replay 2021 04 23 720p / 1080p DX-TV

WWE Main Event Online

 WWE Main Event Online

 

 

 

Download Links with High Speed


Dopapk

 

 

Show Links

 

http://shrt10.com/eF2dVeLHn
http://shrt10.com/N7ic08

 

[collapse]

 

 

Nitroflare

 

 

Show Links

 

http://shrt10.com/6Bzd30G8m
http://shrt10.com/ufPAUP

 

[collapse]

 

 

Rapidgator

 

 

Show Links

 

http://shrt10.com/DKFjhF
http://shrt10.com/Dyc84vzm

 

[collapse]

 

 

Uploaded

 

 

Show Links

 

http://shrt10.com/7jZSGco
http://shrt10.com/CzM2I

 

[collapse]

 

 

Watch online

 

Server 1

 

 

 

 

WWE Main Event Online

 

 

 

 

Server-2

 

 

 

 

watch now

 

 

 

|Server-3

 

 

 

 

watch now

 

 

Uploaded By Site DX-TV.com

 

 

Show Info This Show

 

 

Complete name : WWE.Main.Event.2021.04.23.720p.Hulu.x264-Star.mkv
Format : Matroska
Format version : Version 4
File size : 1.35 GiB
Duration : 46 min 44 s
Overall bit rate : 4 129 kb/s

WWE Main Event Online

Video
ID : 1
Format : AVC
Duration : 46 min 44 s
Bit rate : 4 000 kb/s
Width : 1 280 pixels
Height : 720 pixels
Display aspect ratio : 16:9
Frame rate mode : Constant
Frame rate : 29.970 (30000/1001) FPS
Color space : YUV
Chroma subsampling : 4:2:0
Bit depth : 8 bits
Scan type : Progressive
Bits/(Pixel*Frame) : 0.145
Stream size : 1.28 GiB (95%)
Forced : No
Color range : Limited
Color primaries : BT.709
Transfer characteristics : BT.709
Matrix coefficients : BT.709

Audio
ID : 2
Format : AC-3
Format/Info : Audio Coding 3
Commercial name : Dolby Digital
Codec ID : A_AC3
Duration : 46 min 44 s
Bit rate mode : Constant
Bit rate : 128 kb/s
Channel(s) : 2 channels
Channel layout : L R
Sampling rate : 48.0 kHz
Frame rate : 31.250 FPS
Compression mode : Lossy
Delay relative to video : -5 ms
Stream size : 42.8 MiB (3%)
Title : Stereo
Service kind : Complete Main
Default : Yes
Forced : No

WWE Main Event

Audio
ID : 2
Format : AC-3
Format/Info : Audio Coding 3
Commercial name : Dolby Digital
Codec ID : A_AC3
Duration : 46 min 44 s
Bit rate mode : Constant
Bit rate : 128 kb/s
Channel(s) : 2 channels
Channel layout : L R
Sampling rate : 48.0 kHz
Frame rate : 31.250 FPS
Compression mode : Lossy
Delay relative to video : -5 ms
Stream size : 42.8 MiB (3%)
Title : Stereo
Service kind : Complete Main
Default : Yes
Forced : No

Complete name : WWE.Main.Event.2021.04.23.1080p.Hulu.x264-Star.mkv
Format : Matroska
Format version : Version 4
File size : 2.65 GiB
Duration : 46 min 44 s
Overall bit rate : 8 125 kb/s

WWE Main Event

Video
ID : 1
Format : AVC
Format/Info : Advanced Video
Duration : 46 min 44 s
Bit rate : 8 000 kb/s
Width : 1 920 pixels
Height : 1 080 pixels
Display aspect ratio : 16:9
Frame rate mode : Constant
Frame rate : 29.970 (30000/1001) FPS
Color space : YUV
Chroma subsampling : 4:2:0
Bit depth : 8 bits
Scan type : Progressive
Bits/(Pixel*Frame) : 0.129
Stream size : 2.56 GiB (96%)
Forced : No
Color range : Limited
Color primaries : BT.709
Transfer characteristics : BT.709
Matrix coefficients : BT.709

WWE Main Event

Audio
ID : 2
Format : AC-3
Format/Info : Audio Coding 3
Commercial name : Dolby Digital
Codec ID : A_AC3
Duration : 46 min 44 s
Bit rate mode : Constant
Bit rate : 128 kb/s
Channel(s) : 2 channels
Channel layout : L R
Sampling rate : 48.0 kHz
Frame rate : 31.250 FPS (1536 SPF)
Compression mode : Lossy
Delay relative to video : -5 ms
Stream size : 42.8 MiB (2%)
Title : Stereo
Service kind : Complete Main
Default : Yes
Forced : No

WWE Main Event

 

[collapse]

 

 

https://dx-tv.com/