WWE Main Event November 06 2020 720p /1080p

Watch WWE Main Event November 2020 06 1080p HDTV Star DX-TV

WWE Main Event November 06 2020

 

 WWE Main Event November 06 2020

 

WWE Main Event November 06 2020 720p /1080p

 

Complete name : WWE.Main.Event.2020.11.06.1080p.HDTV.x264-Star.mkv
Format : Matroska
Format version : Version 4
File size : 1.92 GiB
Duration : 46 min 32 s
Overall bit rate : 5 896 kb/s
Writing library : Lavf58.29.100

WWE Main Event November 06 2020

Video
ID : 1
Format : AVC
Duration : 46 min 32 s
Bit rate : 5 700 kb/s
Width : 1 920 pixels
Height : 1 080 pixels
Display aspect ratio : 16:9
Frame rate mode : Constant
rate : 29.970 (30000/1001) FPS
Color space : YUV
Chroma subsampling : 4:2:0
Bit depth : 8 bits
Scan type : Progressive
Bits/(Pixel*Frame) : 0.092
Stream size : 1.82 GiB (95%)
Color range : Limited
Color primaries : BT.709
Transfer characteristics : BT.709
Matrix coefficients : BT.709

WWE Main Event November 06 2020

Audio
ID : 2
Format : AC-3
Format/Info : Audio Coding 3
Commercial name : Dolby Digital
Codec ID : A_AC3
Duration : 46 min 32 s
Bit rate mode : Constant
Bit rate : 192 kb/s
Channel(s) : 2 channels
Channel layout : L R
Sampling rate : 48.0 kHz
Frame rate : 31.250 FPS
Compression mode : Lossy
Delay relative to video : -5 ms
Stream size : 63.9 MiB (3%)
Title : Stereo
Service kind : Complete Main
Default : Yes
Forced : No

WWE Main Event November 06 2020

– After the match, the music hits as Banks takes her title and stands tall, raising it in the air. We go to replays.

Banks celebrates and exits with her title in the air, taunting Bayley who is still in the ring.

Banks suddenly turns around on the stage and is dropped by a superkick from Carmella.

Fans immediately start booing her. Carmella capitalizes while Banks is down and the boos get louder.

Carmella fixes her hair and makeup, and stands tall over Banks before heading to the back.

– The announcers hype Seth Rollins vs. Otis and Rey Mysterio vs King Baron Corbin in tonight’s Survivor Series qualifiers for the men’s team.

WWE Main Event November 06 2020

– Jey Uso is backstage preparing for an interview, with a cup of coffee in hand.

when Kevin Owens walks up. Owens jokes about Jey getting coffee for Roman Reigns.

Jey asks if Owens thinks his family is a joke. Owens doesn’t think any of this is a joke.

Owens came over because they’re partners at Survivor Series and Owens doesn’t have much success at that event.

and he’s hoping they can change that.

Owens says but clearly Jey has other stuff on his mind and he will leave Jey be.

Owens jokes about the coffee again, saying maybe Jey should switch to decaf, and then walks off. We go back to commercial.

– Back from the break and the announcers hype The Undertaker’s 30 year anniversary .

and his “Final Farewell” appearance at the Survivor Series pay-per-view.

 

 

WWE Main Event November 06 2020 720p /1080p

 

 

Watch online

 

 

Server 1

 

 

 

WWE Main Event November 06 2020

 

 

 

 

Server-2

 

 

 

watch now

 

 

 

 

 

 

Uploaded By Site DX-TV.com

 

 

 

 

Download Free Links with normal and high Speed [ more 14 hosts ]  

 

[su_expand more_text=”Show Hosts Info” less_text=”Close all Info” height=”30″ text_color=”#000000″ link_color=”#e25f8b” link_style=”button” more_icon=”icon: arrow-down” less_icon=”icon: arrow-up”]

 

WWE Main Event November 06 2020

hexupload.net – clicknupload.co – www.multiup.org – uptobox.com – anonfiles.com – userscloud.com –

dropapk.to alfafile.net – ddownload.com – rockfile.co – 1fichier.com – filedown.org – katfile.com – filerio.in

 

 

[/su_expand]

 

 

720p

http://shrt10.com/OMI5D
http://shrt10.com/PPNgh
http://shrt10.com/erk0v
http://shrt10.com/TEq6nX
http://shrt10.com/gol5k6Z
http://shrt10.com/RM0dnx2dU
http://shrt10.com/3TbcBtO
http://shrt10.com/7DgZF

 

1080p

 

http://shrt10.com/9r7o0gJ
http://shrt10.com/kiKzBGhVn
http://shrt10.com/kAOK5Yq
http://shrt10.com/gQAJNuENF
http://shrt10.com/ryoJ13UG
http://shrt10.com/glkMO

 

 

Download Links with premium High Speed   

 

 

 

 

dropapk.to

http://shrt10.com/1bi0pHv
http://shrt10.com/EUNnnjag

 

 

nitroflare.com

http://shrt10.com/z0O9gu
http://shrt10.com/yG0fS

 

 

rapidgator.net

http://shrt10.com/6djJyWYEi
http://shrt10.com/3uRYjM

 

 

uploaded.net

http://shrt10.com/dVBRtE
http://shrt10.com/FOaFQqDHC

 

 

uploadgig.com

http://shrt10.com/LnhZNNKR
http://shrt10.com/JDxi49a

 

 

 

 

dx-tv.com

 

urlfree.net

You May Also Like

Leave a Reply

Your email address will not be published. Required fields are marked *

This site uses Akismet to reduce spam. Learn how your comment data is processed.