WWE Main Event Nov 19 2020 1080p Full Show Online

Watch WWE Main Event 2020 11 19 1080p HDTV Star DX-TV

WWE Main Event

 

 WWE Main Event

 

WWE Main Event Nov 19 2020 1080p Full Show Online

 

 

[su_expand more_text=”Show More Info” less_text=”Close all Info” height=”30″ text_color=”#000000″ link_color=”#e25f8b” link_style=”button” more_icon=”icon: arrow-down” less_icon=”icon: arrow-up”]

 

Complete name : WWE.Main.Event.2020.11.19.1080p.HDTV.x264-Star.mkv
Format : Matroska
Format version : Version 4
File size : 1.97 GiB
Duration : 44 min 58 s
Overall bit rate : 6 283 kb/s

WWE Main Event

Video
ID : 1
Format : AVC
Duration : 44 min 58 s
Bit rate : 6 000 kb/s
Width : 1 920 pixels
Height : 1 080 pixels
Display aspect ratio : 16:9
rate mode : Constant
Frame rate : 29.970 FPS
Color space : YUV
Chroma sampling : 4:2:0
Bit depth : 8 bits
Scan type : Progressive
Bits/(Pixel*Frame) : 0.097
Stream size : 1.85 GiB
Forced : No
Color range : Limited
Color primaries : BT.709
Transfer characteristics : BT.709
Matrix coefficients : BT.709

WWE Main Event

Audio
ID : 2
Format : AC-3
Format/Info : Audio
Commercial name : Dolby
Codec ID : A_AC3
Duration : 44 min 58 s
Bit rate mode : Constant
Bit rate : 256 kb/s
Channel(s) : 2 channels
Channel layout : L R
Sampling rate : 48.0 kHz
Frame rate : 31.250 FPS
Compression mode : Lossy
Delay relative to video : -5 ms
Stream size : 82.4 MiB
Title : Stereo
Service kind : Complete
Default : Yes
Forced : No

 

 

WWE Main Event Nov 19 2020 1080p Full Show Online

 

 

[/su_expand]

 

 

Watch online

 

 

Server 1

 

 

 

 

 

 

 

 

Server-2

 

WWE Main Event

 

 

 

 

 

 

Uploaded By Site DX-TV.com

 

 

 

 

Download Free Links with normal and high Speed [ more 14 hosts ]  

 

[su_expand more_text=”Show Hosts Info” less_text=”Close all Info” height=”30″ text_color=”#000000″ link_color=”#e25f8b” link_style=”button” more_icon=”icon: arrow-down” less_icon=”icon: arrow-up”]

 

WWE Main Event

hexupload.net – clicknupload.co – www.multiup.org

– uptobox.com – anonfiles.com – userscloud.com –

dropapk.to alfafile.net – ddownload.com – rockfile.co

– 1fichier.com – filedown.org – katfile.com – filerio.in

 

 

[/su_expand]

 

http://shrt10.com/F4UCHItV
http://shrt10.com/xFvcL
http://shrt10.com/DGvT7ciJ
http://shrt10.com/28HjYQ
http://shrt10.com/elrr1PqG
http://shrt10.com/MaRuTnl
http://shrt10.com/ItHla
http://shrt10.com/F31IU7

 

 

 

 

 

Download Links with premium High Speed   

 

 

 

 

dropapk.to

 

 

 

nitroflare.com

 

 

 

rapidgator.net

 

 

 

uploaded.net

 

 

 

uploadgig.com

 

 

 

WWE Main Event

 

dx-tv.com

 

urlfree.net