WWE Main Event 2021 12 08 720p Online Free Replay

WWE Main Event 2021 12 08 720p Online Free Replay DX-TV

WWE Main Event 2021

 WWE Main Event 2021

 

 

 

Download Links with premium High Speed


 

Dopapk

 

 

Show Links

 

http://shrt10.com/BBxGCx5C8

 

[collapse]

 

 

Nitroflare

 

 

Show Links

 

http://shrt10.com/XDBsU

 

[collapse]

 

 

Rapidgator

 

 

Show Links

 

http://shrt10.com/3tRgN

 

[collapse]

 

 

Uploaded

 

 

Show Links

 

http://shrt10.com/1Nmc4JV

 

[collapse]

 

 

Watch online

 

Server 1

 

 

 

 

WWE Main Event 2021

 

 

 

 

Server-2

 

 

 

 

watch now

 

 

 

|Server-3

 

 

 

 

watch now

 

 

Uploaded By Site DX-TV.com

 

 

Show Info This Show

WWE Main Event 2021

 

Complete name : WWE Main Event 08 12 21.mp4
Format : MPEG-4
Format profile : Base Media
Codec ID : isom
File size : 2.10 GiB
Duration : 51 min 16 s
Overall bit rate : 5 853 kb/s

Video
ID : 1
Format : AVC
Codec ID : avc1
Codec ID/Info : Advanced Video
Duration : 51 min 16 s
Bit rate : 5 684 kb/s
Width : 1 280 pixels
Height : 720 pixels
Display aspect ratio : 16:9
Frame rate mode : Constant
Frame rate : 30.000 FPS
Color space : YUV
Chroma subsampling : 4:2:0
Bit depth : 8 bits
Scan type : Progressive
Bits/(Pixel*Frame) : 0.206
Stream size : 2.04 GiB (97%)

WWE Main Event 2021

Audio
ID : 2
Format : AAC LC
Format/Info : Advanced Audio
Codec ID : mp4a-40-2
Duration : 51 min 16 s
Duration_LastFrame : -11 ms
Bit rate mode : Constant
Bit rate : 160 kb/s
Channel(s) : 2 channels
Channel layout : L R
Sampling rate : 48.0 kHz
Frame rate : 46.875 FPS (1024 SPF)
Compression mode : Lossy
Stream size : 58.7 MiB (3%)
Default : Yes
Alternate group : 1

WWE Main Event 2021

Complete name : WWE Main Event 08 12 21.mp4
Format : MPEG-4
Format profile : Base Media
Codec ID : isom
File size : 2.10 GiB
Duration : 51 min 16 s
Overall bit rate : 5 853 kb/s

Video
ID : 1
Format : AVC
Codec ID : avc1
Codec ID/Info : Advanced Video
Duration : 51 min 16 s
Bit rate : 5 684 kb/s
Width : 1 280 pixels
Height : 720 pixels
Display aspect ratio : 16:9
Frame rate mode : Constant
Frame rate : 30.000 FPS
Color space : YUV
Chroma subsampling : 4:2:0
Bit depth : 8 bits
Scan type : Progressive
Bits/(Pixel*Frame) : 0.206
Stream size : 2.04 GiB (97%)

WWE Main Event 2021

Audio
ID : 2
Format : AAC LC
Format/Info : Advanced Audio
Codec ID : mp4a-40-2
Duration : 51 min 16 s
Duration_LastFrame : -11 ms
Bit rate mode : Constant
Bit rate : 160 kb/s
Channel(s) : 2 channels
Channel layout : L R
Sampling rate : 48.0 kHz
Frame rate : 46.875 FPS (1024 SPF)
Compression mode : Lossy
Stream size : 58.7 MiB (3%)
Default : Yes
Alternate group : 1

WWE Main Event 2021

Complete name : WWE Main Event 08 12 21.mp4
Format : MPEG-4
Format profile : Base Media
Codec ID : isom
File size : 2.10 GiB
Duration : 51 min 16 s
Overall bit rate : 5 853 kb/s

Video
ID : 1
Format : AVC
Codec ID : avc1
Codec ID/Info : Advanced Video
Duration : 51 min 16 s
Bit rate : 5 684 kb/s
Width : 1 280 pixels
Height : 720 pixels
Display aspect ratio : 16:9
Frame rate mode : Constant
Frame rate : 30.000 FPS
Color space : YUV
Chroma subsampling : 4:2:0
Bit depth : 8 bits
Scan type : Progressive
Bits/(Pixel*Frame) : 0.206
Stream size : 2.04 GiB (97%)

WWE Main Event 2021

Audio
ID : 2
Format : AAC LC
Format/Info : Advanced Audio
Codec ID : mp4a-40-2
Duration : 51 min 16 s
Duration_LastFrame : -11 ms
Bit rate mode : Constant
Bit rate : 160 kb/s
Channel(s) : 2 channels
Channel layout : L R
Sampling rate : 48.0 kHz
Frame rate : 46.875 FPS (1024 SPF)
Compression mode : Lossy
Stream size : 58.7 MiB (3%)
Default : Yes
Alternate group : 1

WWE Main Event 2021

Complete name : WWE Main Event 08 12 21.mp4
Format : MPEG-4
Format profile : Base Media
Codec ID : isom
File size : 2.10 GiB
Duration : 51 min 16 s
Overall bit rate : 5 853 kb/s

Video
ID : 1
Format : AVC
Codec ID : avc1
Codec ID/Info : Advanced Video
Duration : 51 min 16 s
Bit rate : 5 684 kb/s
Width : 1 280 pixels
Height : 720 pixels
Display aspect ratio : 16:9
Frame rate mode : Constant
Frame rate : 30.000 FPS
Color space : YUV
Chroma subsampling : 4:2:0
Bit depth : 8 bits
Scan type : Progressive
Bits/(Pixel*Frame) : 0.206
Stream size : 2.04 GiB (97%)

WWE Main Event 2021

Audio
ID : 2
Format : AAC LC
Format/Info : Advanced Audio
Codec ID : mp4a-40-2
Duration : 51 min 16 s
Duration_LastFrame : -11 ms
Bit rate mode : Constant
Bit rate : 160 kb/s
Channel(s) : 2 channels
Channel layout : L R
Sampling rate : 48.0 kHz
Frame rate : 46.875 FPS (1024 SPF)
Compression mode : Lossy
Stream size : 58.7 MiB (3%)
Default : Yes
Alternate group : 1

WWE Main Event 2021

Complete name : WWE Main Event 08 12 21.mp4
Format : MPEG-4
Format profile : Base Media
Codec ID : isom
File size : 2.10 GiB
Duration : 51 min 16 s
Overall bit rate : 5 853 kb/s

Video
ID : 1
Format : AVC
Codec ID : avc1
Codec ID/Info : Advanced Video
Duration : 51 min 16 s
Bit rate : 5 684 kb/s
Width : 1 280 pixels
Height : 720 pixels
Display aspect ratio : 16:9
Frame rate mode : Constant
Frame rate : 30.000 FPS
Color space : YUV
Chroma subsampling : 4:2:0
Bit depth : 8 bits
Scan type : Progressive
Bits/(Pixel*Frame) : 0.206
Stream size : 2.04 GiB (97%)

WWE Main Event 2021

Audio
ID : 2
Format : AAC LC
Format/Info : Advanced Audio
Codec ID : mp4a-40-2
Duration : 51 min 16 s
Duration_LastFrame : -11 ms
Bit rate mode : Constant
Bit rate : 160 kb/s
Channel(s) : 2 channels
Channel layout : L R
Sampling rate : 48.0 kHz
Frame rate : 46.875 FPS (1024 SPF)
Compression mode : Lossy
Stream size : 58.7 MiB (3%)
Default : Yes
Alternate group : 1

WWE Main Event 2021

Complete name : WWE Main Event 08 12 21.mp4
Format : MPEG-4
Format profile : Base Media
Codec ID : isom
File size : 2.10 GiB
Duration : 51 min 16 s
Overall bit rate : 5 853 kb/s

Video
ID : 1
Format : AVC
Codec ID : avc1
Codec ID/Info : Advanced Video
Duration : 51 min 16 s
Bit rate : 5 684 kb/s
Width : 1 280 pixels
Height : 720 pixels
Display aspect ratio : 16:9
Frame rate mode : Constant
Frame rate : 30.000 FPS
Color space : YUV
Chroma subsampling : 4:2:0
Bit depth : 8 bits
Scan type : Progressive
Bits/(Pixel*Frame) : 0.206
Stream size : 2.04 GiB (97%)

WWE Main Event 2021

Audio
ID : 2
Format : AAC LC
Format/Info : Advanced Audio
Codec ID : mp4a-40-2
Duration : 51 min 16 s
Duration_LastFrame : -11 ms
Bit rate mode : Constant
Bit rate : 160 kb/s
Channel(s) : 2 channels
Channel layout : L R
Sampling rate : 48.0 kHz
Frame rate : 46.875 FPS (1024 SPF)
Compression mode : Lossy
Stream size : 58.7 MiB (3%)
Default : Yes
Alternate group : 1

WWE Main Event 2021

Complete name : WWE Main Event 08 12 21.mp4
Format : MPEG-4
Format profile : Base Media
Codec ID : isom
File size : 2.10 GiB
Duration : 51 min 16 s
Overall bit rate : 5 853 kb/s

Video
ID : 1
Format : AVC
Codec ID : avc1
Codec ID/Info : Advanced Video
Duration : 51 min 16 s
Bit rate : 5 684 kb/s
Width : 1 280 pixels
Height : 720 pixels
Display aspect ratio : 16:9
Frame rate mode : Constant
Frame rate : 30.000 FPS
Color space : YUV
Chroma subsampling : 4:2:0
Bit depth : 8 bits
Scan type : Progressive
Bits/(Pixel*Frame) : 0.206
Stream size : 2.04 GiB (97%)

WWE Main Event 2021

Audio
ID : 2
Format : AAC LC
Format/Info : Advanced Audio
Codec ID : mp4a-40-2
Duration : 51 min 16 s
Duration_LastFrame : -11 ms
Bit rate mode : Constant
Bit rate : 160 kb/s
Channel(s) : 2 channels
Channel layout : L R
Sampling rate : 48.0 kHz
Frame rate : 46.875 FPS (1024 SPF)
Compression mode : Lossy
Stream size : 58.7 MiB (3%)
Default : Yes
Alternate group : 1

WWE Main Event 2021

Complete name : WWE Main Event 08 12 21.mp4
Format : MPEG-4
Format profile : Base Media
Codec ID : isom
File size : 2.10 GiB
Duration : 51 min 16 s
Overall bit rate : 5 853 kb/s

Video
ID : 1
Format : AVC
Codec ID : avc1
Codec ID/Info : Advanced Video
Duration : 51 min 16 s
Bit rate : 5 684 kb/s
Width : 1 280 pixels
Height : 720 pixels
Display aspect ratio : 16:9
Frame rate mode : Constant
Frame rate : 30.000 FPS
Color space : YUV
Chroma subsampling : 4:2:0
Bit depth : 8 bits
Scan type : Progressive
Bits/(Pixel*Frame) : 0.206
Stream size : 2.04 GiB (97%)

WWE Main Event 2021

Audio
ID : 2
Format : AAC LC
Format/Info : Advanced Audio
Codec ID : mp4a-40-2
Duration : 51 min 16 s
Duration_LastFrame : -11 ms
Bit rate mode : Constant
Bit rate : 160 kb/s
Channel(s) : 2 channels
Channel layout : L R
Sampling rate : 48.0 kHz
Frame rate : 46.875 FPS (1024 SPF)
Compression mode : Lossy
Stream size : 58.7 MiB (3%)
Default : Yes
Alternate group : 1

WWE Main Event 2021

Complete name : WWE Main Event 08 12 21.mp4
Format : MPEG-4
Format profile : Base Media
Codec ID : isom
File size : 2.10 GiB
Duration : 51 min 16 s
Overall bit rate : 5 853 kb/s

Video
ID : 1
Format : AVC
Codec ID : avc1
Codec ID/Info : Advanced Video
Duration : 51 min 16 s
Bit rate : 5 684 kb/s
Width : 1 280 pixels
Height : 720 pixels
Display aspect ratio : 16:9
Frame rate mode : Constant
Frame rate : 30.000 FPS
Color space : YUV
Chroma subsampling : 4:2:0
Bit depth : 8 bits
Scan type : Progressive
Bits/(Pixel*Frame) : 0.206
Stream size : 2.04 GiB (97%)

WWE Main Event 2021

Audio
ID : 2
Format : AAC LC
Format/Info : Advanced Audio
Codec ID : mp4a-40-2
Duration : 51 min 16 s
Duration_LastFrame : -11 ms
Bit rate mode : Constant
Bit rate : 160 kb/s
Channel(s) : 2 channels
Channel layout : L R
Sampling rate : 48.0 kHz
Frame rate : 46.875 FPS (1024 SPF)
Compression mode : Lossy
Stream size : 58.7 MiB (3%)
Default : Yes
Alternate group : 1

WWE Main Event 2021

Complete name : WWE Main Event 08 12 21.mp4
Format : MPEG-4
Format profile : Base Media
Codec ID : isom
File size : 2.10 GiB
Duration : 51 min 16 s
Overall bit rate : 5 853 kb/s

Video
ID : 1
Format : AVC
Codec ID : avc1
Codec ID/Info : Advanced Video
Duration : 51 min 16 s
Bit rate : 5 684 kb/s
Width : 1 280 pixels
Height : 720 pixels
Display aspect ratio : 16:9
Frame rate mode : Constant
Frame rate : 30.000 FPS
Color space : YUV
Chroma subsampling : 4:2:0
Bit depth : 8 bits
Scan type : Progressive
Bits/(Pixel*Frame) : 0.206
Stream size : 2.04 GiB (97%)

WWE Main Event 2021

Audio
ID : 2
Format : AAC LC
Format/Info : Advanced Audio
Codec ID : mp4a-40-2
Duration : 51 min 16 s
Duration_LastFrame : -11 ms
Bit rate mode : Constant
Bit rate : 160 kb/s
Channel(s) : 2 channels
Channel layout : L R
Sampling rate : 48.0 kHz
Frame rate : 46.875 FPS (1024 SPF)
Compression mode : Lossy
Stream size : 58.7 MiB (3%)
Default : Yes
Alternate group : 1

WWE Main Event 2021

Complete name : WWE Main Event 08 12 21.mp4
Format : MPEG-4
Format profile : Base Media
Codec ID : isom
File size : 2.10 GiB
Duration : 51 min 16 s
Overall bit rate : 5 853 kb/s

Video
ID : 1
Format : AVC
Codec ID : avc1
Codec ID/Info : Advanced Video
Duration : 51 min 16 s
Bit rate : 5 684 kb/s
Width : 1 280 pixels
Height : 720 pixels
Display aspect ratio : 16:9
Frame rate mode : Constant
Frame rate : 30.000 FPS
Color space : YUV
Chroma subsampling : 4:2:0
Bit depth : 8 bits
Scan type : Progressive
Bits/(Pixel*Frame) : 0.206
Stream size : 2.04 GiB (97%)

WWE Main Event 2021

Audio
ID : 2
Format : AAC LC
Format/Info : Advanced Audio
Codec ID : mp4a-40-2
Duration : 51 min 16 s
Duration_LastFrame : -11 ms
Bit rate mode : Constant
Bit rate : 160 kb/s
Channel(s) : 2 channels
Channel layout : L R
Sampling rate : 48.0 kHz
Frame rate : 46.875 FPS (1024 SPF)
Compression mode : Lossy
Stream size : 58.7 MiB (3%)
Default : Yes
Alternate group : 1

WWE Main Event 2021

Complete name : WWE Main Event 08 12 21.mp4
Format : MPEG-4
Format profile : Base Media
Codec ID : isom
File size : 2.10 GiB
Duration : 51 min 16 s
Overall bit rate : 5 853 kb/s

Video
ID : 1
Format : AVC
Codec ID : avc1
Codec ID/Info : Advanced Video
Duration : 51 min 16 s
Bit rate : 5 684 kb/s
Width : 1 280 pixels
Height : 720 pixels
Display aspect ratio : 16:9
Frame rate mode : Constant
Frame rate : 30.000 FPS
Color space : YUV
Chroma subsampling : 4:2:0
Bit depth : 8 bits
Scan type : Progressive
Bits/(Pixel*Frame) : 0.206
Stream size : 2.04 GiB (97%)

WWE Main Event 2021

Audio
ID : 2
Format : AAC LC
Format/Info : Advanced Audio
Codec ID : mp4a-40-2
Duration : 51 min 16 s
Duration_LastFrame : -11 ms
Bit rate mode : Constant
Bit rate : 160 kb/s
Channel(s) : 2 channels
Channel layout : L R
Sampling rate : 48.0 kHz
Frame rate : 46.875 FPS (1024 SPF)
Compression mode : Lossy
Stream size : 58.7 MiB (3%)
Default : Yes
Alternate group : 1

WWE Main Event 2021

Complete name : WWE Main Event 08 12 21.mp4
Format : MPEG-4
Format profile : Base Media
Codec ID : isom
File size : 2.10 GiB
Duration : 51 min 16 s
Overall bit rate : 5 853 kb/s

Video
ID : 1
Format : AVC
Codec ID : avc1
Codec ID/Info : Advanced Video
Duration : 51 min 16 s
Bit rate : 5 684 kb/s
Width : 1 280 pixels
Height : 720 pixels
Display aspect ratio : 16:9
Frame rate mode : Constant
Frame rate : 30.000 FPS
Color space : YUV
Chroma subsampling : 4:2:0
Bit depth : 8 bits
Scan type : Progressive
Bits/(Pixel*Frame) : 0.206
Stream size : 2.04 GiB (97%)

WWE Main Event 2021

Audio
ID : 2
Format : AAC LC
Format/Info : Advanced Audio
Codec ID : mp4a-40-2
Duration : 51 min 16 s
Duration_LastFrame : -11 ms
Bit rate mode : Constant
Bit rate : 160 kb/s
Channel(s) : 2 channels
Channel layout : L R
Sampling rate : 48.0 kHz
Frame rate : 46.875 FPS (1024 SPF)
Compression mode : Lossy
Stream size : 58.7 MiB (3%)
Default : Yes
Alternate group : 1

WWE Main Event 2021

Complete name : WWE Main Event 08 12 21.mp4
Format : MPEG-4
Format profile : Base Media
Codec ID : isom
File size : 2.10 GiB
Duration : 51 min 16 s
Overall bit rate : 5 853 kb/s

Video
ID : 1
Format : AVC
Codec ID : avc1
Codec ID/Info : Advanced Video
Duration : 51 min 16 s
Bit rate : 5 684 kb/s
Width : 1 280 pixels
Height : 720 pixels
Display aspect ratio : 16:9
Frame rate mode : Constant
Frame rate : 30.000 FPS
Color space : YUV
Chroma subsampling : 4:2:0
Bit depth : 8 bits
Scan type : Progressive
Bits/(Pixel*Frame) : 0.206
Stream size : 2.04 GiB (97%)

WWE Main Event 2021

Audio
ID : 2
Format : AAC LC
Format/Info : Advanced Audio
Codec ID : mp4a-40-2
Duration : 51 min 16 s
Duration_LastFrame : -11 ms
Bit rate mode : Constant
Bit rate : 160 kb/s
Channel(s) : 2 channels
Channel layout : L R
Sampling rate : 48.0 kHz
Frame rate : 46.875 FPS (1024 SPF)
Compression mode : Lossy
Stream size : 58.7 MiB (3%)
Default : Yes
Alternate group : 1

WWE Main Event 2021

Complete name : WWE Main Event 08 12 21.mp4
Format : MPEG-4
Format profile : Base Media
Codec ID : isom
File size : 2.10 GiB
Duration : 51 min 16 s
Overall bit rate : 5 853 kb/s

Video
ID : 1
Format : AVC
Codec ID : avc1
Codec ID/Info : Advanced Video
Duration : 51 min 16 s
Bit rate : 5 684 kb/s
Width : 1 280 pixels
Height : 720 pixels
Display aspect ratio : 16:9
Frame rate mode : Constant
Frame rate : 30.000 FPS
Color space : YUV
Chroma subsampling : 4:2:0
Bit depth : 8 bits
Scan type : Progressive
Bits/(Pixel*Frame) : 0.206
Stream size : 2.04 GiB (97%)

WWE Main Event 2021

Audio
ID : 2
Format : AAC LC
Format/Info : Advanced Audio
Codec ID : mp4a-40-2
Duration : 51 min 16 s
Duration_LastFrame : -11 ms
Bit rate mode : Constant
Bit rate : 160 kb/s
Channel(s) : 2 channels
Channel layout : L R
Sampling rate : 48.0 kHz
Frame rate : 46.875 FPS (1024 SPF)
Compression mode : Lossy
Stream size : 58.7 MiB (3%)
Default : Yes
Alternate group : 1

WWE Main Event 2021

Complete name : WWE Main Event 08 12 21.mp4
Format : MPEG-4
Format profile : Base Media
Codec ID : isom
File size : 2.10 GiB
Duration : 51 min 16 s
Overall bit rate : 5 853 kb/s

Video
ID : 1
Format : AVC
Codec ID : avc1
Codec ID/Info : Advanced Video
Duration : 51 min 16 s
Bit rate : 5 684 kb/s
Width : 1 280 pixels
Height : 720 pixels
Display aspect ratio : 16:9
Frame rate mode : Constant
Frame rate : 30.000 FPS
Color space : YUV
Chroma subsampling : 4:2:0
Bit depth : 8 bits
Scan type : Progressive
Bits/(Pixel*Frame) : 0.206
Stream size : 2.04 GiB (97%)

WWE Main Event 2021

Audio
ID : 2
Format : AAC LC
Format/Info : Advanced Audio
Codec ID : mp4a-40-2
Duration : 51 min 16 s
Duration_LastFrame : -11 ms
Bit rate mode : Constant
Bit rate : 160 kb/s
Channel(s) : 2 channels
Channel layout : L R
Sampling rate : 48.0 kHz
Frame rate : 46.875 FPS (1024 SPF)
Compression mode : Lossy
Stream size : 58.7 MiB (3%)
Default : Yes
Alternate group : 1

WWE Main Event 2021

Complete name : WWE Main Event 08 12 21.mp4
Format : MPEG-4
Format profile : Base Media
Codec ID : isom
File size : 2.10 GiB
Duration : 51 min 16 s
Overall bit rate : 5 853 kb/s

Video
ID : 1
Format : AVC
Codec ID : avc1
Codec ID/Info : Advanced Video
Duration : 51 min 16 s
Bit rate : 5 684 kb/s
Width : 1 280 pixels
Height : 720 pixels
Display aspect ratio : 16:9
Frame rate mode : Constant
Frame rate : 30.000 FPS
Color space : YUV
Chroma subsampling : 4:2:0
Bit depth : 8 bits
Scan type : Progressive
Bits/(Pixel*Frame) : 0.206
Stream size : 2.04 GiB (97%)

WWE Main Event 2021

Audio
ID : 2
Format : AAC LC
Format/Info : Advanced Audio
Codec ID : mp4a-40-2
Duration : 51 min 16 s
Duration_LastFrame : -11 ms
Bit rate mode : Constant
Bit rate : 160 kb/s
Channel(s) : 2 channels
Channel layout : L R
Sampling rate : 48.0 kHz
Frame rate : 46.875 FPS (1024 SPF)
Compression mode : Lossy
Stream size : 58.7 MiB (3%)
Default : Yes
Alternate group : 1

WWE Main Event 2021

Complete name : WWE Main Event 08 12 21.mp4
Format : MPEG-4
Format profile : Base Media
Codec ID : isom
File size : 2.10 GiB
Duration : 51 min 16 s
Overall bit rate : 5 853 kb/s

Video
ID : 1
Format : AVC
Codec ID : avc1
Codec ID/Info : Advanced Video
Duration : 51 min 16 s
Bit rate : 5 684 kb/s
Width : 1 280 pixels
Height : 720 pixels
Display aspect ratio : 16:9
Frame rate mode : Constant
Frame rate : 30.000 FPS
Color space : YUV
Chroma subsampling : 4:2:0
Bit depth : 8 bits
Scan type : Progressive
Bits/(Pixel*Frame) : 0.206
Stream size : 2.04 GiB (97%)

WWE Main Event 2021

Audio
ID : 2
Format : AAC LC
Format/Info : Advanced Audio
Codec ID : mp4a-40-2
Duration : 51 min 16 s
Duration_LastFrame : -11 ms
Bit rate mode : Constant
Bit rate : 160 kb/s
Channel(s) : 2 channels
Channel layout : L R
Sampling rate : 48.0 kHz
Frame rate : 46.875 FPS (1024 SPF)
Compression mode : Lossy
Stream size : 58.7 MiB (3%)
Default : Yes
Alternate group : 1

WWE Main Event 2021

Complete name : WWE Main Event 08 12 21.mp4
Format : MPEG-4
Format profile : Base Media
Codec ID : isom
File size : 2.10 GiB
Duration : 51 min 16 s
Overall bit rate : 5 853 kb/s

Video
ID : 1
Format : AVC
Codec ID : avc1
Codec ID/Info : Advanced Video
Duration : 51 min 16 s
Bit rate : 5 684 kb/s
Width : 1 280 pixels
Height : 720 pixels
Display aspect ratio : 16:9
Frame rate mode : Constant
Frame rate : 30.000 FPS
Color space : YUV
Chroma subsampling : 4:2:0
Bit depth : 8 bits
Scan type : Progressive
Bits/(Pixel*Frame) : 0.206
Stream size : 2.04 GiB (97%)

WWE Main Event 2021

Audio
ID : 2
Format : AAC LC
Format/Info : Advanced Audio
Codec ID : mp4a-40-2
Duration : 51 min 16 s
Duration_LastFrame : -11 ms
Bit rate mode : Constant
Bit rate : 160 kb/s
Channel(s) : 2 channels
Channel layout : L R
Sampling rate : 48.0 kHz
Frame rate : 46.875 FPS (1024 SPF)
Compression mode : Lossy
Stream size : 58.7 MiB (3%)
Default : Yes
Alternate group : 1

WWE Main Event 2021

Complete name : WWE Main Event 08 12 21.mp4
Format : MPEG-4
Format profile : Base Media
Codec ID : isom
File size : 2.10 GiB
Duration : 51 min 16 s
Overall bit rate : 5 853 kb/s

Video
ID : 1
Format : AVC
Codec ID : avc1
Codec ID/Info : Advanced Video
Duration : 51 min 16 s
Bit rate : 5 684 kb/s
Width : 1 280 pixels
Height : 720 pixels
Display aspect ratio : 16:9
Frame rate mode : Constant
Frame rate : 30.000 FPS
Color space : YUV
Chroma subsampling : 4:2:0
Bit depth : 8 bits
Scan type : Progressive
Bits/(Pixel*Frame) : 0.206
Stream size : 2.04 GiB (97%)

WWE Main Event 2021

Audio
ID : 2
Format : AAC LC
Format/Info : Advanced Audio
Codec ID : mp4a-40-2
Duration : 51 min 16 s
Duration_LastFrame : -11 ms
Bit rate mode : Constant
Bit rate : 160 kb/s
Channel(s) : 2 channels
Channel layout : L R
Sampling rate : 48.0 kHz
Frame rate : 46.875 FPS (1024 SPF)
Compression mode : Lossy
Stream size : 58.7 MiB (3%)
Default : Yes
Alternate group : 1

WWE Main Event 2021

Complete name : WWE Main Event 08 12 21.mp4
Format : MPEG-4
Format profile : Base Media
Codec ID : isom
File size : 2.10 GiB
Duration : 51 min 16 s
Overall bit rate : 5 853 kb/s

Video
ID : 1
Format : AVC
Codec ID : avc1
Codec ID/Info : Advanced Video
Duration : 51 min 16 s
Bit rate : 5 684 kb/s
Width : 1 280 pixels
Height : 720 pixels
Display aspect ratio : 16:9
Frame rate mode : Constant
Frame rate : 30.000 FPS
Color space : YUV
Chroma subsampling : 4:2:0
Bit depth : 8 bits
Scan type : Progressive
Bits/(Pixel*Frame) : 0.206
Stream size : 2.04 GiB (97%)

WWE Main Event 2021

Audio
ID : 2
Format : AAC LC
Format/Info : Advanced Audio
Codec ID : mp4a-40-2
Duration : 51 min 16 s
Duration_LastFrame : -11 ms
Bit rate mode : Constant
Bit rate : 160 kb/s
Channel(s) : 2 channels
Channel layout : L R
Sampling rate : 48.0 kHz
Frame rate : 46.875 FPS (1024 SPF)
Compression mode : Lossy
Stream size : 58.7 MiB (3%)
Default : Yes
Alternate group : 1

WWE Main Event 2021

Complete name : WWE Main Event 08 12 21.mp4
Format : MPEG-4
Format profile : Base Media
Codec ID : isom
File size : 2.10 GiB
Duration : 51 min 16 s
Overall bit rate : 5 853 kb/s

Video
ID : 1
Format : AVC
Codec ID : avc1
Codec ID/Info : Advanced Video
Duration : 51 min 16 s
Bit rate : 5 684 kb/s
Width : 1 280 pixels
Height : 720 pixels
Display aspect ratio : 16:9
Frame rate mode : Constant
Frame rate : 30.000 FPS
Color space : YUV
Chroma subsampling : 4:2:0
Bit depth : 8 bits
Scan type : Progressive
Bits/(Pixel*Frame) : 0.206
Stream size : 2.04 GiB (97%)

WWE Main Event 2021

Audio
ID : 2
Format : AAC LC
Format/Info : Advanced Audio
Codec ID : mp4a-40-2
Duration : 51 min 16 s
Duration_LastFrame : -11 ms
Bit rate mode : Constant
Bit rate : 160 kb/s
Channel(s) : 2 channels
Channel layout : L R
Sampling rate : 48.0 kHz
Frame rate : 46.875 FPS (1024 SPF)
Compression mode : Lossy
Stream size : 58.7 MiB (3%)
Default : Yes
Alternate group : 1

WWE Main Event 2021

 

[collapse]

 

 

https://dx-tv.com/

You May Also Like

Leave a Reply

Your email address will not be published. Required fields are marked *

This site uses Akismet to reduce spam. Learn how your comment data is processed.