WWE Main Event 2021 09 16 Full Show Replay

WWE Main Event 2021 09 16 1080p Full Show Replay DX-TV

WWE Main Event

 WWE Main Event

 

 

 

Download Links with premium High Speed
 

 


 

Dopapk

 

 

Show Links

 

 

https://shrt10.com/VDNK9

 

 

 

 

 

Nitroflare

 

 

Show Links

 

 

Rapidgator

 

 

Show Links

 

 

 

Uploaded
 

 

 

Show Links

 

 

 

 

 

Watch online

 

Server 1

 

 

 

 

WWE Main Event

 

 

 

 

Server-2

 

 

 

 

watch now

 

 

 

|Server-3

 

 

 

 

WWE Main Event

 

 

Uploaded By Site DX-TV.com

 

 

Open Info Show

 

 

Complete name : WWE.Main.Event.2021.09.16.1080p.WEB.h264-HEEL.mp4
Format : MPEG-4
Format profile : Base Media
Codec ID : isovc1/mp41)
File size : 3.01 GiB
Duration : 54 min 25 s
Overall bit rate mode : Variable
Overall bit rate : 7 922 kb/s

WWE Main Event

Video
ID : 1
Format : AVC
Duration : 54 min 25 s
Bit rate : 7 808 kb/s
Width : 1 920 pixels
Height : 1 080 pixels
Display aspect ratio : 16:9
Frame rate mode : Constant
Frame rate : 30.000 FPS
Color space : YUV
Chroma subsampling : 4:2:0
Bit depth : 8 bits
Scan type : Progressive
Bits/(Pixel*Frame) : 0.126
Stream size : 2.93 GiB (97%)

WWE Main Event

Audio
ID : 2
Format : AAC LC
Format/Info : Advanced Audio
Codec ID : mp4a-40-2
Duration : 54 min 25 s
Bit rate mode : Constant
Bit rate : 192 kb/s
Channel(s) : 2 channels
Channel layout : L R
Sampling rate : 48.0 kHz
Frame rate : 46.875 FPS (1024 SPF)
Compression mode : Lossy
Stream size : 75.0 MiB (2%)
Default : Yes
Alternate group : 1

WWE Main Event

Text
ID : 3
Format : Timed Text
Muxing mode : sbtl
Codec ID : tx3g
Duration : 54 min 22 s
Bit rate mode : Variable
Bit rate : 95 b/s
Stream size : 37.9 KiB (0%)
Language : English
Default : Yes
Forced : No
Alternate group : 3

 

Video
ID : 1
Format : AVC
Duration : 54 min 25 s
Bit rate : 7 808 kb/s
Width : 1 920 pixels
Height : 1 080 pixels
Display aspect ratio : 16:9
Frame rate mode : Constant
Frame rate : 30.000 FPS
Color space : YUV
Chroma subsampling : 4:2:0
Bit depth : 8 bits
Scan type : Progressive
Bits/(Pixel*Frame) : 0.126
Stream size : 2.93 GiB (97%)

WWE Main Event

Audio
ID : 2
Format : AAC LC
Format/Info : Advanced Audio
Codec ID : mp4a-40-2
Duration : 54 min 25 s
Bit rate mode : Constant
Bit rate : 192 kb/s
Channel(s) : 2 channels
Channel layout : L R
Sampling rate : 48.0 kHz
Frame rate : 46.875 FPS (1024 SPF)
Compression mode : Lossy
Stream size : 75.0 MiB (2%)
Default : Yes
Alternate group : 1

WWE Main Event

Text
ID : 3
Format : Timed Text
Muxing mode : sbtl
Codec ID : tx3g
Duration : 54 min 22 s
Bit rate mode : Variable
Bit rate : 95 b/s
Stream size : 37.9 KiB (0%)
Language : English
Default : Yes
Forced : No
Alternate group : 3

 

https://dx-tv.com/

 

 

 

 

 

Leave a Reply

Your email address will not be published. Required fields are marked *

This site uses Akismet to reduce spam. Learn how your comment data is processed.