WWE Main Event 2021 01 07 720p /1080p Star DX-TV

WWE Main Event 2021 01 07 720p /1080p Star DX-TV

WWE Main Event 2021

 WWE Main Event 2021

 

Download Links with premium High Speed   

 

 

nitroflare.com

http://shrt10.com/1RtBBtdjB
http://shrt10.com/yLrtoU

 

 

rapidgator.net

http://shrt10.com/atUmUrte
http://shrt10.com/G0qxP

 

 

uploaded.net

http://shrt10.com/8XFwNlqR
http://shrt10.com/P4Gfju

 

 

uploadgig.com

http://shrt10.com/XKR9Bz
http://shrt10.com/HqWmb

 

Watch WWE Main Event online

 

Server 1

 

 

 

 

WWE Main Event

 

 

 

 

Server-2

 

 

 

 

watch now

 

 

Uploaded By Site DX-TV.com

 

 

Complete name : WWE.Main.Event.2021.01.07.720p.Hulu.x264-Star.mkv
Format : Matroska
Format version : Version 4
File size : 1.35 GiB
Duration : 47 min 27 s
Overall bit rate : 4 084 kb/s

WWE Main Event

Video
ID : 1
Format : AVC
Format/Info : Advanced Video
Duration : 47 min 27 s
Bit rate : 4 000 kb/s
Width : 1 280 pixels
Height : 720 pixels
Display aspect ratio : 16:9
Frame rate mode : Constant
Frame rate : 29.970 FPS
Color space : YUV
Chroma subsampling : 4:2:0
Bit depth : 8 bits
Scan type : Progressive
Bits/(Pixel*Frame) : 0.145
Stream size : 1.28 GiB (95%)
Forced : No
Color range : Limited
Color primaries : BT.709
Transfer characteristics : BT.709
Matrix coefficients : BT.709

WWE Main Event

Audio
ID : 2
Format : AC-3
Format/Info : Audio Coding 3
Commercial name : Dolby Digital
Codec ID : A_AC3
Duration : 47 min 27 s
Bit rate mode : Constant
Bit rate : 128 kb/s
Channel(s) : 2 channels
Channel layout : L R
Sampling rate : 48.0 kHz
Frame rate : 31.250 FPS (1536 SPF)
Compression mode : Lossy
Delay relative to video : -5 ms
Stream size : 43.4 MiB (3%)
Title : Stereo
Service kind : Complete Main
Default : Yes
Forced : No

 Main Event

Complete name : WWE.Main.Event.2021.01.07.1080p.Hulu.x264-Star.mkv
Format : Matroska
Format version : Version 4
File size : 2.67 GiB
Duration : 47 min 27 s
Overall bit rate : 8 047 kb/s

Video
ID : 1
Format : AVC
Format/Info : Advanced Video
Duration : 47 min 27 s
Bit rate : 8 000 kb/s
Width : 1 920 pixels
Height : 1 080 pixels
Display aspect ratio : 16:9
Frame rate mode : Constant
Frame rate : 29.970 FPS
Color space : YUV
Chroma subsampling : 4:2:0
Bit depth : 8 bits
Scan type : Progressive
Bits/(Pixel*Frame) : 0.129
Stream size : 2.57 GiB (96%)
Forced : No
Color range : Limited
Color primaries : BT.709
Transfer characteristics : BT.709
Matrix coefficients : BT.709

WWE Main Event

Audio
ID : 2
Format : AC-3
Format/Info : Audio Coding 3
Commercial name : Dolby Digital
Codec ID : A_AC3
Duration : 47 min 27 s
Bit rate mode : Constant
Bit rate : 128 kb/s
Channel(s) : 2 channels
Channel layout : L R
Sampling rate : 48.0 kHz
Frame rate : 31.250 FPS (1536 SPF)
Compression mode : Lossy
Delay relative to video : -5 ms
Stream size : 43.4 MiB (2%)
Title : Stereo
Service kind : Complete Main
Default : Yes
Forced : No

 

 

https://dx-tv.com/

Leave a Reply

Your email address will not be published. Required fields are marked *

This site uses Akismet to reduce spam. Learn how your comment data is processed.