WWE Main Event 2020 09 04 720p Free Online

Watch WWE Main Event 2020 09 04 720p Free Online DX-TV

 

WWE Main Event 2020 09 04

 

 WWE Main Event 2020 09 04

 

Main Event 2020 09 04 720p Free Online

 

 

 

[su_expand more_text=”Show More Info” less_text=”Close all Info” height=”30″ text_color=”#000000″ link_color=”#e25f8b” link_style=”button” more_icon=”icon: arrow-down” less_icon=”icon: arrow-up”]

 

Complete name : WWE.Main.Event.2020.09.04.720p.HDTV.x264-Star.mkv
Format : Matroska
Format version : Version 4
File size : 1.63 GiB
Duration : 44 min 55 s
Overall bit rate : 5 209 kb/s
Writing library : Lavf58.29.100
Error Detection Type : Per level 1

 Main Event 2020 09 04

Video
ID : 1
Format : AVC
Format/Info : Advanced Video
Codec ID : V_MPEG4/ISO/AVC
Duration : 44 min 55 s
Bit rate : 5 000 kb/s  Main Event 2020 09 04
Width : 1 280 pixels
Height : 720 pixels
Display aspect ratio : 16:9
Frame rate mode : Constant
rate : 29.970 (30000/1001) FPS
Color space : YUV
Chroma subsampling : 4:2:0
Bit depth : 8 bits
Scan type : Progressive
Bits/(Pixel*Frame) : 0.181
Stream size : 1.54 GiB (94%)
Forced : No
Color range : Limited
Color primaries : BT.709
Transfer characteristics : BT.709
Matrix coefficients : BT.709

 Main Event 2020 09 04

Audio
ID : 2
Format : AC-3
Format/Info : Audio Coding 3
Commercial name : Dolby Digital
Codec ID : A_AC3
Duration : 44 min 55 s
Bit rate mode : Constant
Bit rate : 192 kb/s
Channel(s) : 2 channels
Channel layout : L R
Sampling rate : 48.0 kHz
Frame rate : 31.250 FPS (1536 SPF)
Compression mode : Lossy
Delay relative to video : -5 ms
Stream size : 61.7 MiB (4%)
Title : Stereo
Service kind : Complete Main
Default : Yes
Forced : No

 

 

 

Main Event 2020 09 04 720p Free Online

 

 

[/su_expand]

 

 

 

Watch online

 

 

[su_expand more_text=”Open Videos Online” less_text=”Close Videos” height=”0″ text_color=”#0859fe” link_color=”#a74a69″ link_style=”button” more_icon=”icon: play” less_icon=”icon: stop”]

 

 

Server 1

 

 

 

 

watch now

 

 

 

WWE Main Event 2020 09 04

Server-2

 

 

 

watch now

 

 

 

 

Server-3

 

 

 

WWE Main Event 2020 09 04

 

 

 

[/su_expand]
 

 

Uploaded By Site DX-TV.com

 Main Event 2020 09 04

 

 

Download Links with High Speed   

 

 

[su_expand more_text=”Open Download Links” less_text=”Close all Links” height=”0″ text_color=”#4b9a3e” link_color=”#1b3fa8″ link_style=”button” more_icon=”icon: link” less_icon=”icon: unlink”]
 

Keep2Share

 

 

 

nitroflare.com

 

 

 

rapidgator.net

 

 

 

uploadgig.com

 

 

[/su_expand]
dx-tv.com

 

urlfree.net