WWE Main Event 2020 08 26 1080p Full Show Free

Watch WWE Main Event 2020 08 26 1080p Full Show Free DX-TV

 

Main Event 2020 08 26

 

 WWE Main Event 2020 08 26

 

WWE Main Event 2020 08 26 1080p Full Show Free

 

[su_expand more_text=”Show More Info” less_text=”Close all Info” height=”30″ text_color=”#000000″ link_color=”#e25f8b” link_style=”button” more_icon=”icon: arrow-down” less_icon=”icon: arrow-up”]

 

Complete name : WWE.Main.Event.2020.08.26.1080p.HULU.WEB-DL.AAC2.0.H.264-FAVELA.mkv
Format : Matroska
Format version : Version 4
File size : 1.82 GiB
Duration : 44 min 6 s
Overall bit rate : 5 923 kb/s

Video
ID : 1
Format : AVC
Duration : 44 min 6 s
Bit rate : 5 857 kb/s
Width : 1 920 pixels
Height : 1 080 pixels
Display aspect ratio : 16:9
Frame rate mode : Constant
Frame rate : 29.970 FPS
Color space : YUV
Chroma subsampling : 4:2:0
Bit depth : 8 bits Main Event 2020 08 26
Scan type : Progressive
Bits/(Pixel*Frame) : 0.094
Stream size : 1.80 GiB (99%)
Default : Yes
Forced : No

WWE Main Event 2020 08 26 1080p Full Show 

Audio
ID : 2
Format/Info : Advanced
Commercial name : HE-AAC
Format settings : Explicit
Codec ID : A_AAC-2
Duration : 44 min 6 s
Bit rate : 64.0 kb/s
Channel(s) : 2 channels 
Channel layout : L R
Sampling rate : 48.0 kHz
Frame rate : 23.438 FPS (2048 SPF)
Compression mode : Lossy
Stream size : 20.2 MiB (1%)
Language : English
Default : Yes
Forced : No

Text
ID : 3
Format : UTF-8
Codec ID : S_TEXT/UTF8
Codec ID/Info : UTF-8 Plain Text
Duration : 41 min 31 s
Bit rate : 72 b/s Main Event 2020 08 26
Count of elements : 999
Stream size : 22.2 KiB (0%)
Title : SDH
Language : English
Default : No
Forced : No

 

 

 

Main Event 2020 08 26 1080p Full Show Free

 

 

[/su_expand]

 

 

 

Watch online

 

 

[su_expand more_text=”Open Videos Online” less_text=”Close Videos” height=”0″ text_color=”#0859fe” link_color=”#a74a69″ link_style=”button” more_icon=”icon: play” less_icon=”icon: stop”]

 

 

Server 1

 

 

 

 

watch now

 

 

 

 

Server-2

 

 

 

WWE Main Event 2020 08 26

 

 

 

 

Server-2

 

 

 

WWE Main Event 2020 08 26

 

 

 

 

 

[/su_expand]
 

 

Uploaded By Site DX-TV.com

 

 

 

Download Links with High Speed   

 

 

[su_expand more_text=”Open Download Links” less_text=”Close all Links” height=”0″ text_color=”#4b9a3e” link_color=”#1b3fa8″ link_style=”button” more_icon=”icon: link” less_icon=”icon: unlink”]
 

Keep2Share

 

 

 

nitroflare.com

 

 

 

rapidgator.net

 

 

 

uploadgig.com

 

 

[/su_expand]
dx-tv.com

 

urlfree.net