WWE Main Event 2018 05 18 HDTV Ebi /720p Watch / Download

WWE Main Event 2018 05 18 HDTV Ebi /720p Watch / Download

 

 

 

 


 

dx-tv.com

 

 

 

 

 

Complete name : WWE.Main.Event.2018.05.18.HDTV.x264-Ebi.mp4
Format : MPEG-4
Format profile : Base Media / Version 2
Codec ID : mp42
File size : 450 MiB
Duration : 42mn 56s
Overall bit rate : 1 467 Kbps
Encoded date : UTC 2018-05-22 09:04:57
Tagged date : UTC 2018-05-22 09:04:57

Video
ID : 1
Format : AVC
Format/Info : Advanced Video Codec
Codec ID : avc1
Codec ID/Info : Advanced Video Coding
Duration : 42mn 56s
Bit rate mode : Variable
Bit rate : 1 300 Kbps
Width : 712 pixels
Height : 400 pixels
Display aspect ratio : 16:9
Frame rate mode : Constant
Frame rate : 29.970 fps
Color space : YUV
Chroma subsampling : 4:2:0
Bit depth : 8 bits
Scan type : Progressive
Bits/(Pixel*Frame) : 0.152
Stream size : 399 MiB (89%)

Audio
ID : 2
Format : AAC
Format/Info : Advanced Audio Codec
Format profile : LC
Codec ID : 40
Duration : 42mn 56s
Bit rate mode : Variable
Bit rate : 160 Kbps
Channel(s) : 2 channels
Channel positions : Front: L R
Sampling rate : 48.0 KHz
Compression mode : Lossy
Stream size : 49.2 MiB (11%)
Title : Stereo
Encoded date : UTC 2018-05-22 09:04:57
Tagged date : UTC 2018-05-22 09:04:57

 

 

 

 

 

 

 
WWE.Main.Event.2018.05.18.720p.HDTV.x264-Ebi
Release Info:
Show Name: WWE Main Event
Genre: Wrestling
Release Date: 2018-05-22(UK)
Air Date: 2018-05-18(AE)
Source : HDTV
Container: MP4
Video: x264, 4695Kbps, 29,970fps, 1280×720, 16:9
Audio: AAC, 192bps, 48KHz, 2ch
Size: 1.41 GB
Runtime: 42mn 56s
 

 

 

 

 

 

 

 

 

 

 

WWE Main Event 2018 05 18 HDTV Ebi /720p Watch / Download

 

 

 

 

Watch online

 

 

Waiting finish converting video

 

 

Server 1

 

 

 

 

 

 

 

 

 

 

 

 

 

 

Server 2

 

 

 

 

 

 

 


 

 

 

 

 

 

Uploaded By Site DX-TV.com

 

 

 

open rar file to see this password

 

 

 

 

The password is : DX-TV.com

 

 

 

 

400p+720p

 

 

 

 

 

Uploaded.net + rapidgator.net

 

 

 

 
http://shrt10.com/eai1
 

http://shrt10.com/LLcr
 

http://shrt10.com/i7ee
 

http://shrt10.com/uPU6Qh1a

 

 

 

 

 

 

 

 

 

WWE Main Event 2018 05 18 HDTV Ebi /720p Watch / Download