WWE Main Event 2018 05 18 720p HDTV WD Watch / Download

WWE Main Event 2018 05 18 720p HDTV WD Watch / Download

 

 

 

 


 

 

dx-tv.com

 

 

 

 

 

Complete name : WWE.Main.Event.2018.05.18.720p.HDTV.x264-WD.mp4
Format : MPEG-4
Format profile : Base Media / Version 2
Codec ID : mp42
File size : 1.21 GiB
Duration : 43mn 42s
Overall bit rate : 3 961 Kbps
Encoded date : UTC 2018-05-20 10:02:32
Tagged date : UTC 2018-05-20 10:02:32

Video
ID : 1
Format : AVC
Format/Info : Advanced Video Codec
Codec ID : avc1
Codec ID/Info : Advanced Video Coding
Duration : 43mn 42s
Bit rate mode : Variable
Bit rate : 3 800 Kbps
Width : 1 280 pixels
Height : 720 pixels
Display aspect ratio : 16:9
Frame rate mode : Variable
Frame rate : 25.000 fps
Minimum frame rate : 12.500 fps
Maximum frame rate : 25.000 fps
Color space : YUV
Chroma subsampling : 4:2:0
Bit depth : 8 bits
Scan type : Progressive
Bits/(Pixel*Frame) : 0.165
Stream size : 1.16 GiB (96%)

Audio
ID : 2
Format : AAC
Format/Info : Advanced Audio Codec
Format profile : LC
Codec ID : 40
Duration : 43mn 42s
Bit rate mode : Variable
Bit rate : 160 Kbps
Channel(s) : 2 channels
Channel positions : Front: L R
Sampling rate : 48.0 KHz
Compression mode : Lossy
Stream size : 50.1 MiB (4%)
Title : Stereo
Language : English
Encoded date : UTC 2018-05-20 10:02:32
Tagged date : UTC 2018-05-20 10:02:32

 

 

 

 

 

 

 

WWE Main Event 2018 05 18 720p HDTV WD Watch / Download

 

 

 

 

Watch online

 

 

Waiting finish converting video

 

 

Server 1

 

 

 

 

 

 

 

 

 

 

 

 

 

 

Server 2

 

 

 

 

 

 

 

 

 

 

 

 

Uploaded By Site DX-TV.com

 

 

 

open rar file to see this password

 

 

 

 

The password is : DX-TV.com

 

 

 

 

 

Uploaded.net + rapidgator.net

 

 

 

 

 

 

http://shrt10.com/iwg1GKC

 

 

 

 

 

 

http://shrt10.com/bttJ

 

 

 

 

 

 

WWE Main Event 2018 05 18 720p HDTV WD Watch / Download

Leave a Reply

Your email address will not be published. Required fields are marked *