WWE Main Event 15 07 2020 1080p Full Show Online

Watch WWE Main Event 15 07 2020 1080p DX-TV

 

wwe

 WWE Main Event
 

 

WWE Main Event 15 07 2020 1080p Full Show Online

 

 

 

Complete name : wwe.main.event.2020.07.15.1080p.web.h264-tbs.mkv
Format : Matroska
Format version : Version 4
File size : 1.90 GiB
wwe : 45 min 33 s
Overall bit rate : 5 974 kb/s

WWE Main Event 15 07 2020 1080p Full Show Online

Video
ID : 1
Format : AVC
Format/Info : Advanced 
profile : [email protected]
Format settings : CABAC
settings, CABAC : Yes
Format wwe: 4 frames
Codec ID : V_MPEG4/ISO/AVC
Duration : 45 min 33 s
Bit rate : 5 908 kb/s
Width : 1 920 pixels
Height : 1 080 pixels
Display aspect ratio : 16:9
Frame rate mode : Constant
Frame rate : 29.970 FPS
Color space : YUV
Chroma subsampling : 4:2:0
Bit depth : 8 bits
Scan type : wwe
Bits/(Pixel*Frame) : 0.095
Stream size : 1.88 GiB (99%)
Default : Yes
Forced : No

 Main Event 15 07 2020 1080p Full Show Online

Audio
ID : 2
Format : AAC LC SBR
Format/Info : Advanced
Commercial name : HE-AAC
Format settings : Explicit
Codec ID : A_AAC-2
Duration : 45 min 33 s
Bit rate : 64.0 kb/s
Channel(s) : 2 channels
Channel layout : wwe
Sampling rate : 48.0 kHz
Frame rate : 23.438 FPS (2048 SPF)
wwe mode : Lossy
Stream size : 20.9 MiB (1%)
Default : Yes
Forced : No

Text
ID : 3
Format : UTF-8
Codec ID : wwe
Codec ID/Info : UTF-8 Plain Text
Duration : 45 min 24 s
Bit rate : 72 b/s
Count of elements : 1089
wwe size : 24.0 KiB (0%)
Language : English
Default : No
Forced : No

 

 

WWE Main Event 15 07 2020 1080p Full Show Online

 

 

 

Watch online

 

 

Server 1

 

 

 

 

watch now

 

 

 

 

Server 2

 

 

 

watch now

 

 

 

Server-3

 

 

 

watch now

 

 

 

Uploaded By Site DX-TV.com

 

 

 

Download with premium account Links 

 

 

Keep2Share

 

 

nitroflare.com

 

 

rapidgator.net

 

 

uploadgig.com

 

 

 

dx-tv.com

 

urlfree.net