WWE Main Event 14 Jan 2021 1080p DX-TV

WWE Main Event 14 Jan 2021 720p/ 1080p Star DX-TV

WWE Main Event 14 Jan

 WWE Main Event 14 Jan

 

Download Links with premium High Speed   

 

 

dropapk.to

http://shrt10.com/njfBDLDuw
http://shrt10.com/f0sgt

 

 

nitroflare.com

http://shrt10.com/uDxcQW1y
http://shrt10.com/V0qoc

 

 

rapidgator.net

http://shrt10.com/1bzXs
http://shrt10.com/Pixcg

 

 

uploaded.net

http://shrt10.com/M8NgM
http://shrt10.com/N7Isan

 

 

uploadgig.com

http://shrt10.com/gClVben
http://shrt10.com/lj8F9

 

Watch WWE Main Event online

 

Server 1

 

 

 

 

WWE Main Event

 

 

 

 

Server-2

 

 

 

 

watch now

 

 

Uploaded By Site DX-TV.com

 

 

Complete name : WWE.Main.Event.2021.01.14.1080p.Hulu.x264-Star.mkv
Format : Matroska
Format version : Version 4
File size : 2.57 GiB
Duration : 45 min 56 s
Overall bit rate : 7 994 kb/s

WWE Main Event

Video
ID : 1
Format : AVC
Duration : 45 min 56 s
Bit rate : 8 000 kb/s
Width : 1 920 pixels
Height : 1 080 pixels
Display aspect ratio : 16:9
Frame rate mode : Constant
Frame rate : 29.970 (30000/1001) FPS
Color space : YUV
Chroma subsampling : 4:2:0
Bit depth : 8 bits
Scan type : Progressive
Bits/(Pixel*Frame) : 0.129
Stream size : 2.47 GiB (96%)
Forced : No
Color range : Limited
Color primaries : BT.709
Transfer characteristics : BT.709
Matrix coefficients : BT.709

WWE Main Event

Audio
ID : 2
Format : AC-3
Format/Info : Audio Coding 3
Commercial name : Dolby Digital
Codec ID : A_AC3
Duration : 45 min 56 s
Bit rate mode : Constant
Bit rate : 128 kb/s
Channel(s) : 2 channels
Channel layout : L R
Sampling rate : 48.0 kHz
Frame rate : 31.250 FPS (1536 SPF)
Compression mode : Lossy
Delay relative to video : -5 ms
Stream size : 42.1 MiB (2%)
Title : Stereo
Service kind : Complete Main
Default : Yes
Forced : No

WWE Main Event

Complete name : WWE.Main.Event.2021.01.14.720p.Hulu.x264-Star.mkv
Format : Matroska
Format version : Version 4
File size : 1.30 GiB
Duration : 45 min 56 s
Overall bit rate : 4 061 kb/s

Video
ID : 1
Format : AVC
Format/Info : Advanced Video
Duration : 45 min 56 s
Bit rate : 4 000 kb/s
Width : 1 280 pixels
Height : 720 pixels
Display aspect ratio : 16:9
Frame rate mode : Constant
Frame rate : 29.970 (30000/1001) FPS
Color space : YUV
Chroma subsampling : 4:2:0
Bit depth : 8 bits
Scan type : Progressive
Bits/(Pixel*Frame) : 0.145
Stream size : 1.24 GiB (95%)
Forced : No
Color range : Limited
Color primaries : BT.709
Transfer characteristics : BT.709
Matrix coefficients : BT.709

WWE Main Event

Audio
ID : 2
Format : AC-3
Format/Info : Audio Coding 3
Commercial name : Dolby Digital
Codec ID : A_AC3
Duration : 45 min 56 s
Bit rate mode : Constant
Bit rate : 128 kb/s
Channel(s) : 2 channels
Channel layout : L R
Sampling rate : 48.0 kHz
Frame rate : 31.250 FPS
Compression mode : Lossy
Stream size : 42.1 MiB (3%)
Title : Stereo
Service kind : Complete Main
Default : Yes
Forced : No

 

 

https://dx-tv.com/

You May Also Like