WWE Main Event 1080p 24 06 2020 Full Show Online

Watch WWE Main Event 1080p 2020 06 24 DX-TV

 

WWE

 WWE Raw

WWE Main Event 1080p 24 06 2020 Full Show Online

 

 

 

Complete name : WWE.Main.Event.2020.06.24.1080p.WEB.h264-TBS.mkv
Format : Matroska
Format version : Version 4
File size : 1.89 GiB
Duration : 44 min 59 s
Overall bit rate : 6 003 kb/s
Encoded date : WWE

 Main Event 1080p 24 06 2020 Full Show Online

Video
ID : 1
Format : AVC
eFormat/Info : Advanced Video Codec
vprofile : [email protected]
aFormat settings : WWE
Format settings, CABAC : Yes
WWE settings, Reference : 4 frames
Codec ID : V_MPEG4/ISO/AVC
Duration : 44 min 58 s
Bit rate : 5 937 kb/s
Width : 1 920 pixels
Height : 1 080 pixels
Display aspect ratio : 16:9
Frame rate mode : Constant
Frame rate : 29.970 (30000/1001) FPS
Color space : YUV
Chroma subsampling : 4:2:0
Bit depth : 8 bits
Scan type : Progressive
WWE (Pixel*Frame) : 0.096
Stream size : 1.87 GiB (99%)
Default : Yes
Forced : No

Audio
ID : 2
Format : AAC LC SBR
Format/Info : Advanced
WWE name : HE-AAC
Format settings : Explicit
Codec ID : A_AAC-2
Duration : 44 min 59 s
Bit rate : 64.0 kb/s
Channel(s) : 2 channels
Channel layout : L R
Sampling rate : 48.0 kHz
Frame rate : 23.438 FPS (2048 SPF)
Compression mode : Lossy
Stream size : 20.6 MiB (1%)
Default : WWE
Forced : No

 Main Event 1080p 24 06 2020 Full Show Online

Text
ID : 3
Format : UTF-8
Codec ID : S_TEXT/UTF8
Codec ID/Info : WWE
Duration : 44 min 57 s
Bit rate : 65 b/s
Count of elements : 1007
Stream size : 21.4 KiB (0%)
Language : English
WWE : No
Forced : No

 

 

WWE Main Event 1080p 24 06 2020 Full Show Online

 

 

 

Watch online

 

 

Server 1

 

 

 

 

watch now

 

 

 

 

Server 2

 

 

 

watch now

 

 

 

Server-3

 

 

 

watch now

 

 

 

Uploaded By Site DX-TV.com

 

 

 

Download with premium account Links 

 

 

Keep2Share

 

 

nitroflare.com

 

 

rapidgator.net

 

 

uploadgig.com

 

 

 

dx-tv.com

 

urlfree.net