WWE La Previa WrestleMania 37 Dia 1 1080p

WWE La Previa WrestleMania 37 Dia 1 1080p DX-TV

WWE La Previa WrestleMania 37

 WWE La Previa WrestleMania 37

 

 

 

Download Links with High Speed


 

Dopapk

 

 

Show Links

 

http://shrt10.com/m2ANWqGUS
http://shrt10.com/j1ftW48U

 

[collapse]

 

 

Nitroflare

 

 

Show Links

 

http://shrt10.com/cfF9Jk
http://shrt10.com/HqOdOWOO

 

[collapse]

 

 

Rapidgator

 

 

Show Links

 

http://shrt10.com/JQZB291p3
http://shrt10.com/iPpqRX

 

[collapse]

 

 

Uploaded

 

 

Show Links

 

http://shrt10.com/DZfmtGH
http://shrt10.com/xf4qL0MPf

 

[collapse]

 

 

Watch online

 

Server 1

 

 

 

 

watch now

 

 

 

 

Server-2

 

 

 

 

watch now

 

 

 

|Server-3

 

 

 

 

WWE La Previa WrestleMania 37

 

 

Uploaded By Site DX-TV.com

 

 

Show Info This Show

 

 

Complete name : WWE.La.Previa.WrestleMania.37.Dia.1.720p.WEB.h264-HEEL.mp4
Format : MPEG-4
Format profile : Base Media
Codec ID : isom
File size : 685 MiB
Duration : 56 min 11 s
Overall bit rate mode : Variable
Overall bit rate : 1 704 kb/s

WWE La Previa WrestleMania

Video
ID : 1
Format : AVC
Duration : 56 min 11 s
Bit rate : 1 512 kb/s
Width : 1 280 pixels
Height : 720 pixels
Display aspect ratio : 16:9
Frame rate mode : Constant
Frame rate : 30.000 FPS
Color space : YUV
Chroma subsampling : 4:2:0
Bit depth : 8 bits
Scan type : Progressive
Bits/(Pixel*Frame) : 0.055
Stream size : 604 MiB (88%)

Audio
ID : 2
Format : AAC LC
Codec ID : mp4a-40-2
Duration : 56 min 11 s
Bit rate mode : Constant
Bit rate : 192 kb/s
Channel(s) : 2 channels
Channel layout : L R
Sampling rate : 48.0 kHz
Frame rate : 46.875 FPS (1024 SPF)
Compression mode : Lossy
Stream size : 77.7 MiB (11%)
Default : Yes
Alternate group : 1

WWE La Previa WrestleMania

Text
ID : 3
Format : Timed Text
Muxing mode : sbtl
Codec ID : tx3g
Duration : 55 min 7 s
Bit rate mode : Variable
Bit rate : 78 b/s
Stream size : 31.6 KiB (0%)
Language : English
Default : Yes
Forced : No
Alternate group : 3

Complete name : WWE.La.Previa.WrestleMania.37.Dia.1.1080p.WEB.h264-HEEL.mp4
Format : MPEG-4
Format profile : Base Media
Codec ID : isom
File size : 3.12 GiB
Duration : 56 min 11 s
Overall bit rate mode : Variable
Overall bit rate : 7 947 kb/s

WWE La Previa WrestleMania

Video
ID : 1
Format : AVC
Format/Info : Advanced Video
Duration : 56 min 11 s
Bit rate : 7 808 kb/s
Width : 1 920 pixels
Height : 1 080 pixels
Display aspect ratio : 16:9
Frame rate mode : Constant
Frame rate : 30.000 FPS
Color space : YUV
Chroma subsampling : 4:2:0
Bit depth : 8 bits
Scan type : Progressive
Bits/(Pixel*Frame) : 0.126
Stream size : 3.04 GiB (97%)

WWE La Previa WrestleMania

Audio
ID : 2
Format : AAC LC
Codec ID : mp4a-40-2
Duration : 56 min 11 s
Bit rate mode : Constant
Bit rate : 192 kb/s
Channel(s) : 2 channels
Channel layout : L R
Sampling rate : 48.0 kHz
Frame rate : 46.875 FPS (1024 SPF)
Compression mode : Lossy
Stream size : 77.7 MiB (2%)
Default : Yes
Alternate group : 1

WWE La Previa WrestleMania

Text
ID : 3
Format : Timed Text
Muxing mode : sbtl
Codec ID : tx3g
Duration : 55 min 7 s
Bit rate mode : Variable
Bit rate : 78 b/s
Stream size : 31.6 KiB (0%)
Language : English
Default : Yes
Forced : No
Alternate group : 3

 

 

[collapse]

 

 

https://dx-tv.com/

You May Also Like