WWE La Previa Money in the Bank 2021 Online Free Replay DX-TV

WWE La Previa

 WWE La Previa

 

 

 

Download Links with premium High Speed


 

Dopapk

 

 

Show Links

 

http://shrt10.com/csuLG3ed
http://shrt10.com/689ZWU5JC

 

[collapse]

 

 

Nitroflare

 

 

Show Links

 

http://shrt10.com/h0hkha
http://shrt10.com/Rpsk8XiIG

 

[collapse]

 

 

Rapidgator

 

 

Show Links

 

http://shrt10.com/HHjhpIG2
http://shrt10.com/o7cVbXY

 

[collapse]

 

 

Uploaded

 

 

Show Links

 

http://shrt10.com/TdVhEi2HJ
http://shrt10.com/ZUvbsi

 

[collapse]

 

 

Watch online

 

Server 1

 

 

 

 

WWE La Previa

 

 

 

 

Server-2

 

 

 

 

watch now

 

 

 

|Server-3

 

 

 

 

watch now

 

 

Uploaded By Site DX-TV.com

 

 

Show Info This Show

 

WWE La Previa

Complete name : WWE.La.Previa.Money.in.the.Bank.2021.720p.WEB.h264-HEEL.mp4
Format : MPEG-4
Format profile : Base Media
Codec ID : isom
File size : 673 MiB
Duration : 55 min 18 s
Overall bit rate mode : Variable
Overall bit rate : 1 700 kb/s

Video
ID : 1
Format : AVC
Format/Info : Advanced Video
Bit rate : 1 499 kb/s
Width : 1 280 pixels
Height : 720 pixels
Display aspect ratio : 16:9
Frame rate mode : Constant
Frame rate : 30.000 FPS
Color space : YUV
Chroma subsampling : 4:2:0
Bit depth : 8 bits
Scan type : Progressive
Bits/(Pixel*Frame) : 0.054
Stream size : 593 MiB (88%)

WWE La Previa

Audio
ID : 2
Format : AAC LC
Format/Info : Advanced Audio
Codec ID : mp4a-40-2
Duration : 55 min 18 s
Source duration : 55 min 18 s
Bit rate mode : Constant
Nominal bit rate : 193 kb/s
Maximum bit rate : 193 kb/s
Channel(s) : 2 channels
Channel layout : L R
Sampling rate : 48.0 kHz
Frame rate : 46.875 FPS
Compression mode : Lossy
Source stream size : 76.4 MiB (11%)
Default : Yes
Alternate group : 1
mdhd_Duration : 3318957

WWE La Previa

Text
ID : 3
Format : Timed Text
Muxing mode : sbtl
Codec ID : tx3g
Duration : 12 min 31 s
Bit rate mode : Variable
Bit rate : 78 b/s
Stream size : 7.15 KiB (0%)
Language : English
Default : Yes
Forced : No
Alternate group : 3

Complete name : WWE.La.Previa.Money.in.the.Bank.2021.1080p.WEB.h264-HEEL.mp4
Format : MPEG-4
Format profile : Base Media
Codec ID : isom
File size : 3.07 GiB
Duration : 55 min 18 s
Overall bit rate mode : Variable
Overall bit rate : 7 944 kb/s

WWE La Previa

Video
ID : 1
Format : AVC
Format/Info : Advanced Video
Duration : 55 min 18 s
Bit rate : 7 743 kb/s
Width : 1 920 pixels
Height : 1 080 pixels
Display aspect ratio : 16:9
Frame rate mode : Constant
Frame rate : 30.000 FPS
Color space : YUV
Chroma subsampling : 4:2:0
Bit depth : 8 bits
Scan type : Progressive
Bits/(Pixel*Frame) : 0.124
Stream size : 2.99 GiB (97%)

WWE La Previa

Audio
ID : 2
Format : AAC LC
Format/Info : Advanced Audio
Codec ID : mp4a-40-2
Duration : 55 min 18 s
Source duration : 55 min 18 s
Bit rate mode : Constant
Nominal bit rate : 193 kb/s
Maximum bit rate : 193 kb/s
Channel(s) : 2 channels
Channel layout : L R
Sampling rate : 48.0 kHz
Frame rate : 46.875 FPS
Compression mode : Lossy
Source stream size : 76.4 MiB (2%)
Default : Yes
Alternate group : 1
mdhd_Duration : 3318957

Text
ID : 3
Format : Timed Text
Muxing mode : sbtl
Codec ID : tx3g
Duration : 12 min 31 s
Bit rate mode : Variable
Bit rate : 78 b/s
Stream size : 7.15 KiB (0%)
Language : English
Default : Yes
Forced : No
Alternate group : 3

WWE La Previa

Complete name : WWE.La.Previa.Money.in.the.Bank.2021.720p.WEB.h264-HEEL.mp4
Format : MPEG-4
Format profile : Base Media
Codec ID : isom
File size : 673 MiB
Duration : 55 min 18 s
Overall bit rate mode : Variable
Overall bit rate : 1 700 kb/s

Video
ID : 1
Format : AVC
Format/Info : Advanced Video
Bit rate : 1 499 kb/s
Width : 1 280 pixels
Height : 720 pixels
Display aspect ratio : 16:9
Frame rate mode : Constant
Frame rate : 30.000 FPS
Color space : YUV
Chroma subsampling : 4:2:0
Bit depth : 8 bits
Scan type : Progressive
Bits/(Pixel*Frame) : 0.054
Stream size : 593 MiB (88%)

WWE La Previa

Audio
ID : 2
Format : AAC LC
Format/Info : Advanced Audio
Codec ID : mp4a-40-2
Duration : 55 min 18 s
Source duration : 55 min 18 s
Bit rate mode : Constant
Nominal bit rate : 193 kb/s
Maximum bit rate : 193 kb/s
Channel(s) : 2 channels
Channel layout : L R
Sampling rate : 48.0 kHz
Frame rate : 46.875 FPS
Compression mode : Lossy
Source stream size : 76.4 MiB (11%)
Default : Yes
Alternate group : 1
mdhd_Duration : 3318957

WWE La Previa

Text
ID : 3
Format : Timed Text
Muxing mode : sbtl
Codec ID : tx3g
Duration : 12 min 31 s
Bit rate mode : Variable
Bit rate : 78 b/s
Stream size : 7.15 KiB (0%)
Language : English
Default : Yes
Forced : No
Alternate group : 3

Complete name : WWE.La.Previa.Money.in.the.Bank.2021.1080p.WEB.h264-HEEL.mp4
Format : MPEG-4
Format profile : Base Media
Codec ID : isom
File size : 3.07 GiB
Duration : 55 min 18 s
Overall bit rate mode : Variable
Overall bit rate : 7 944 kb/s

WWE La Previa

Video
ID : 1
Format : AVC
Format/Info : Advanced Video
Duration : 55 min 18 s
Bit rate : 7 743 kb/s
Width : 1 920 pixels
Height : 1 080 pixels
Display aspect ratio : 16:9
Frame rate mode : Constant
Frame rate : 30.000 FPS
Color space : YUV
Chroma subsampling : 4:2:0
Bit depth : 8 bits
Scan type : Progressive
Bits/(Pixel*Frame) : 0.124
Stream size : 2.99 GiB (97%)

WWE La Previa

Audio
ID : 2
Format : AAC LC
Format/Info : Advanced Audio
Codec ID : mp4a-40-2
Duration : 55 min 18 s
Source duration : 55 min 18 s
Bit rate mode : Constant
Nominal bit rate : 193 kb/s
Maximum bit rate : 193 kb/s
Channel(s) : 2 channels
Channel layout : L R
Sampling rate : 48.0 kHz
Frame rate : 46.875 FPS
Compression mode : Lossy
Source stream size : 76.4 MiB (2%)
Default : Yes
Alternate group : 1
mdhd_Duration : 3318957

Text
ID : 3
Format : Timed Text
Muxing mode : sbtl
Codec ID : tx3g
Duration : 12 min 31 s
Bit rate mode : Variable
Bit rate : 78 b/s
Stream size : 7.15 KiB (0%)
Language : English
Default : Yes
Forced : No
Alternate group : 3

WWE La Previa

Complete name : WWE.La.Previa.Money.in.the.Bank.2021.720p.WEB.h264-HEEL.mp4
Format : MPEG-4
Format profile : Base Media
Codec ID : isom
File size : 673 MiB
Duration : 55 min 18 s
Overall bit rate mode : Variable
Overall bit rate : 1 700 kb/s

Video
ID : 1
Format : AVC
Format/Info : Advanced Video
Bit rate : 1 499 kb/s
Width : 1 280 pixels
Height : 720 pixels
Display aspect ratio : 16:9
Frame rate mode : Constant
Frame rate : 30.000 FPS
Color space : YUV
Chroma subsampling : 4:2:0
Bit depth : 8 bits
Scan type : Progressive
Bits/(Pixel*Frame) : 0.054
Stream size : 593 MiB (88%)

WWE La Previa

Audio
ID : 2
Format : AAC LC
Format/Info : Advanced Audio
Codec ID : mp4a-40-2
Duration : 55 min 18 s
Source duration : 55 min 18 s
Bit rate mode : Constant
Nominal bit rate : 193 kb/s
Maximum bit rate : 193 kb/s
Channel(s) : 2 channels
Channel layout : L R
Sampling rate : 48.0 kHz
Frame rate : 46.875 FPS
Compression mode : Lossy
Source stream size : 76.4 MiB (11%)
Default : Yes
Alternate group : 1
mdhd_Duration : 3318957

WWE La Previa

Text
ID : 3
Format : Timed Text
Muxing mode : sbtl
Codec ID : tx3g
Duration : 12 min 31 s
Bit rate mode : Variable
Bit rate : 78 b/s
Stream size : 7.15 KiB (0%)
Language : English
Default : Yes
Forced : No
Alternate group : 3

Complete name : WWE.La.Previa.Money.in.the.Bank.2021.1080p.WEB.h264-HEEL.mp4
Format : MPEG-4
Format profile : Base Media
Codec ID : isom
File size : 3.07 GiB
Duration : 55 min 18 s
Overall bit rate mode : Variable
Overall bit rate : 7 944 kb/s

WWE La Previa

Video
ID : 1
Format : AVC
Format/Info : Advanced Video
Duration : 55 min 18 s
Bit rate : 7 743 kb/s
Width : 1 920 pixels
Height : 1 080 pixels
Display aspect ratio : 16:9
Frame rate mode : Constant
Frame rate : 30.000 FPS
Color space : YUV
Chroma subsampling : 4:2:0
Bit depth : 8 bits
Scan type : Progressive
Bits/(Pixel*Frame) : 0.124
Stream size : 2.99 GiB (97%)

WWE La Previa

Audio
ID : 2
Format : AAC LC
Format/Info : Advanced Audio
Codec ID : mp4a-40-2
Duration : 55 min 18 s
Source duration : 55 min 18 s
Bit rate mode : Constant
Nominal bit rate : 193 kb/s
Maximum bit rate : 193 kb/s
Channel(s) : 2 channels
Channel layout : L R
Sampling rate : 48.0 kHz
Frame rate : 46.875 FPS
Compression mode : Lossy
Source stream size : 76.4 MiB (2%)
Default : Yes
Alternate group : 1
mdhd_Duration : 3318957

Text
ID : 3
Format : Timed Text
Muxing mode : sbtl
Codec ID : tx3g
Duration : 12 min 31 s
Bit rate mode : Variable
Bit rate : 78 b/s
Stream size : 7.15 KiB (0%)
Language : English
Default : Yes
Forced : No
Alternate group : 3

WWE La Previa

Complete name : WWE.La.Previa.Money.in.the.Bank.2021.720p.WEB.h264-HEEL.mp4
Format : MPEG-4
Format profile : Base Media
Codec ID : isom
File size : 673 MiB
Duration : 55 min 18 s
Overall bit rate mode : Variable
Overall bit rate : 1 700 kb/s

Video
ID : 1
Format : AVC
Format/Info : Advanced Video
Bit rate : 1 499 kb/s
Width : 1 280 pixels
Height : 720 pixels
Display aspect ratio : 16:9
Frame rate mode : Constant
Frame rate : 30.000 FPS
Color space : YUV
Chroma subsampling : 4:2:0
Bit depth : 8 bits
Scan type : Progressive
Bits/(Pixel*Frame) : 0.054
Stream size : 593 MiB (88%)

WWE La Previa

Audio
ID : 2
Format : AAC LC
Format/Info : Advanced Audio
Codec ID : mp4a-40-2
Duration : 55 min 18 s
Source duration : 55 min 18 s
Bit rate mode : Constant
Nominal bit rate : 193 kb/s
Maximum bit rate : 193 kb/s
Channel(s) : 2 channels
Channel layout : L R
Sampling rate : 48.0 kHz
Frame rate : 46.875 FPS
Compression mode : Lossy
Source stream size : 76.4 MiB (11%)
Default : Yes
Alternate group : 1
mdhd_Duration : 3318957

WWE La Previa

Text
ID : 3
Format : Timed Text
Muxing mode : sbtl
Codec ID : tx3g
Duration : 12 min 31 s
Bit rate mode : Variable
Bit rate : 78 b/s
Stream size : 7.15 KiB (0%)
Language : English
Default : Yes
Forced : No
Alternate group : 3

Complete name : WWE.La.Previa.Money.in.the.Bank.2021.1080p.WEB.h264-HEEL.mp4
Format : MPEG-4
Format profile : Base Media
Codec ID : isom
File size : 3.07 GiB
Duration : 55 min 18 s
Overall bit rate mode : Variable
Overall bit rate : 7 944 kb/s

WWE La Previa

Video
ID : 1
Format : AVC
Format/Info : Advanced Video
Duration : 55 min 18 s
Bit rate : 7 743 kb/s
Width : 1 920 pixels
Height : 1 080 pixels
Display aspect ratio : 16:9
Frame rate mode : Constant
Frame rate : 30.000 FPS
Color space : YUV
Chroma subsampling : 4:2:0
Bit depth : 8 bits
Scan type : Progressive
Bits/(Pixel*Frame) : 0.124
Stream size : 2.99 GiB (97%)

WWE La Previa

Audio
ID : 2
Format : AAC LC
Format/Info : Advanced Audio
Codec ID : mp4a-40-2
Duration : 55 min 18 s
Source duration : 55 min 18 s
Bit rate mode : Constant
Nominal bit rate : 193 kb/s
Maximum bit rate : 193 kb/s
Channel(s) : 2 channels
Channel layout : L R
Sampling rate : 48.0 kHz
Frame rate : 46.875 FPS
Compression mode : Lossy
Source stream size : 76.4 MiB (2%)
Default : Yes
Alternate group : 1
mdhd_Duration : 3318957

Text
ID : 3
Format : Timed Text
Muxing mode : sbtl
Codec ID : tx3g
Duration : 12 min 31 s
Bit rate mode : Variable
Bit rate : 78 b/s
Stream size : 7.15 KiB (0%)
Language : English
Default : Yes
Forced : No
Alternate group : 3

WWE La Previa

Complete name : WWE.La.Previa.Money.in.the.Bank.2021.720p.WEB.h264-HEEL.mp4
Format : MPEG-4
Format profile : Base Media
Codec ID : isom
File size : 673 MiB
Duration : 55 min 18 s
Overall bit rate mode : Variable
Overall bit rate : 1 700 kb/s

Video
ID : 1
Format : AVC
Format/Info : Advanced Video
Bit rate : 1 499 kb/s
Width : 1 280 pixels
Height : 720 pixels
Display aspect ratio : 16:9
Frame rate mode : Constant
Frame rate : 30.000 FPS
Color space : YUV
Chroma subsampling : 4:2:0
Bit depth : 8 bits
Scan type : Progressive
Bits/(Pixel*Frame) : 0.054
Stream size : 593 MiB (88%)

WWE La Previa

Audio
ID : 2
Format : AAC LC
Format/Info : Advanced Audio
Codec ID : mp4a-40-2
Duration : 55 min 18 s
Source duration : 55 min 18 s
Bit rate mode : Constant
Nominal bit rate : 193 kb/s
Maximum bit rate : 193 kb/s
Channel(s) : 2 channels
Channel layout : L R
Sampling rate : 48.0 kHz
Frame rate : 46.875 FPS
Compression mode : Lossy
Source stream size : 76.4 MiB (11%)
Default : Yes
Alternate group : 1
mdhd_Duration : 3318957

WWE La Previa

Text
ID : 3
Format : Timed Text
Muxing mode : sbtl
Codec ID : tx3g
Duration : 12 min 31 s
Bit rate mode : Variable
Bit rate : 78 b/s
Stream size : 7.15 KiB (0%)
Language : English
Default : Yes
Forced : No
Alternate group : 3

Complete name : WWE.La.Previa.Money.in.the.Bank.2021.1080p.WEB.h264-HEEL.mp4
Format : MPEG-4
Format profile : Base Media
Codec ID : isom
File size : 3.07 GiB
Duration : 55 min 18 s
Overall bit rate mode : Variable
Overall bit rate : 7 944 kb/s

WWE La Previa

Video
ID : 1
Format : AVC
Format/Info : Advanced Video
Duration : 55 min 18 s
Bit rate : 7 743 kb/s
Width : 1 920 pixels
Height : 1 080 pixels
Display aspect ratio : 16:9
Frame rate mode : Constant
Frame rate : 30.000 FPS
Color space : YUV
Chroma subsampling : 4:2:0
Bit depth : 8 bits
Scan type : Progressive
Bits/(Pixel*Frame) : 0.124
Stream size : 2.99 GiB (97%)

WWE La Previa

Audio
ID : 2
Format : AAC LC
Format/Info : Advanced Audio
Codec ID : mp4a-40-2
Duration : 55 min 18 s
Source duration : 55 min 18 s
Bit rate mode : Constant
Nominal bit rate : 193 kb/s
Maximum bit rate : 193 kb/s
Channel(s) : 2 channels
Channel layout : L R
Sampling rate : 48.0 kHz
Frame rate : 46.875 FPS
Compression mode : Lossy
Source stream size : 76.4 MiB (2%)
Default : Yes
Alternate group : 1
mdhd_Duration : 3318957

Text
ID : 3
Format : Timed Text
Muxing mode : sbtl
Codec ID : tx3g
Duration : 12 min 31 s
Bit rate mode : Variable
Bit rate : 78 b/s
Stream size : 7.15 KiB (0%)
Language : English
Default : Yes
Forced : No
Alternate group : 3

WWE La Previa

Complete name : WWE.La.Previa.Money.in.the.Bank.2021.720p.WEB.h264-HEEL.mp4
Format : MPEG-4
Format profile : Base Media
Codec ID : isom
File size : 673 MiB
Duration : 55 min 18 s
Overall bit rate mode : Variable
Overall bit rate : 1 700 kb/s

Video
ID : 1
Format : AVC
Format/Info : Advanced Video
Bit rate : 1 499 kb/s
Width : 1 280 pixels
Height : 720 pixels
Display aspect ratio : 16:9
Frame rate mode : Constant
Frame rate : 30.000 FPS
Color space : YUV
Chroma subsampling : 4:2:0
Bit depth : 8 bits
Scan type : Progressive
Bits/(Pixel*Frame) : 0.054
Stream size : 593 MiB (88%)

WWE La Previa

Audio
ID : 2
Format : AAC LC
Format/Info : Advanced Audio
Codec ID : mp4a-40-2
Duration : 55 min 18 s
Source duration : 55 min 18 s
Bit rate mode : Constant
Nominal bit rate : 193 kb/s
Maximum bit rate : 193 kb/s
Channel(s) : 2 channels
Channel layout : L R
Sampling rate : 48.0 kHz
Frame rate : 46.875 FPS
Compression mode : Lossy
Source stream size : 76.4 MiB (11%)
Default : Yes
Alternate group : 1
mdhd_Duration : 3318957

WWE La Previa

Text
ID : 3
Format : Timed Text
Muxing mode : sbtl
Codec ID : tx3g
Duration : 12 min 31 s
Bit rate mode : Variable
Bit rate : 78 b/s
Stream size : 7.15 KiB (0%)
Language : English
Default : Yes
Forced : No
Alternate group : 3

Complete name : WWE.La.Previa.Money.in.the.Bank.2021.1080p.WEB.h264-HEEL.mp4
Format : MPEG-4
Format profile : Base Media
Codec ID : isom
File size : 3.07 GiB
Duration : 55 min 18 s
Overall bit rate mode : Variable
Overall bit rate : 7 944 kb/s

WWE La Previa

Video
ID : 1
Format : AVC
Format/Info : Advanced Video
Duration : 55 min 18 s
Bit rate : 7 743 kb/s
Width : 1 920 pixels
Height : 1 080 pixels
Display aspect ratio : 16:9
Frame rate mode : Constant
Frame rate : 30.000 FPS
Color space : YUV
Chroma subsampling : 4:2:0
Bit depth : 8 bits
Scan type : Progressive
Bits/(Pixel*Frame) : 0.124
Stream size : 2.99 GiB (97%)

WWE La Previa

Audio
ID : 2
Format : AAC LC
Format/Info : Advanced Audio
Codec ID : mp4a-40-2
Duration : 55 min 18 s
Source duration : 55 min 18 s
Bit rate mode : Constant
Nominal bit rate : 193 kb/s
Maximum bit rate : 193 kb/s
Channel(s) : 2 channels
Channel layout : L R
Sampling rate : 48.0 kHz
Frame rate : 46.875 FPS
Compression mode : Lossy
Source stream size : 76.4 MiB (2%)
Default : Yes
Alternate group : 1
mdhd_Duration : 3318957

Text
ID : 3
Format : Timed Text
Muxing mode : sbtl
Codec ID : tx3g
Duration : 12 min 31 s
Bit rate mode : Variable
Bit rate : 78 b/s
Stream size : 7.15 KiB (0%)
Language : English
Default : Yes
Forced : No
Alternate group : 3

WWE La Previa

Complete name : WWE.La.Previa.Money.in.the.Bank.2021.720p.WEB.h264-HEEL.mp4
Format : MPEG-4
Format profile : Base Media
Codec ID : isom
File size : 673 MiB
Duration : 55 min 18 s
Overall bit rate mode : Variable
Overall bit rate : 1 700 kb/s

Video
ID : 1
Format : AVC
Format/Info : Advanced Video
Bit rate : 1 499 kb/s
Width : 1 280 pixels
Height : 720 pixels
Display aspect ratio : 16:9
Frame rate mode : Constant
Frame rate : 30.000 FPS
Color space : YUV
Chroma subsampling : 4:2:0
Bit depth : 8 bits
Scan type : Progressive
Bits/(Pixel*Frame) : 0.054
Stream size : 593 MiB (88%)

WWE La Previa

Audio
ID : 2
Format : AAC LC
Format/Info : Advanced Audio
Codec ID : mp4a-40-2
Duration : 55 min 18 s
Source duration : 55 min 18 s
Bit rate mode : Constant
Nominal bit rate : 193 kb/s
Maximum bit rate : 193 kb/s
Channel(s) : 2 channels
Channel layout : L R
Sampling rate : 48.0 kHz
Frame rate : 46.875 FPS
Compression mode : Lossy
Source stream size : 76.4 MiB (11%)
Default : Yes
Alternate group : 1
mdhd_Duration : 3318957

WWE La Previa

Text
ID : 3
Format : Timed Text
Muxing mode : sbtl
Codec ID : tx3g
Duration : 12 min 31 s
Bit rate mode : Variable
Bit rate : 78 b/s
Stream size : 7.15 KiB (0%)
Language : English
Default : Yes
Forced : No
Alternate group : 3

Complete name : WWE.La.Previa.Money.in.the.Bank.2021.1080p.WEB.h264-HEEL.mp4
Format : MPEG-4
Format profile : Base Media
Codec ID : isom
File size : 3.07 GiB
Duration : 55 min 18 s
Overall bit rate mode : Variable
Overall bit rate : 7 944 kb/s

WWE La Previa

Video
ID : 1
Format : AVC
Format/Info : Advanced Video
Duration : 55 min 18 s
Bit rate : 7 743 kb/s
Width : 1 920 pixels
Height : 1 080 pixels
Display aspect ratio : 16:9
Frame rate mode : Constant
Frame rate : 30.000 FPS
Color space : YUV
Chroma subsampling : 4:2:0
Bit depth : 8 bits
Scan type : Progressive
Bits/(Pixel*Frame) : 0.124
Stream size : 2.99 GiB (97%)

WWE La Previa

Audio
ID : 2
Format : AAC LC
Format/Info : Advanced Audio
Codec ID : mp4a-40-2
Duration : 55 min 18 s
Source duration : 55 min 18 s
Bit rate mode : Constant
Nominal bit rate : 193 kb/s
Maximum bit rate : 193 kb/s
Channel(s) : 2 channels
Channel layout : L R
Sampling rate : 48.0 kHz
Frame rate : 46.875 FPS
Compression mode : Lossy
Source stream size : 76.4 MiB (2%)
Default : Yes
Alternate group : 1
mdhd_Duration : 3318957

Text
ID : 3
Format : Timed Text
Muxing mode : sbtl
Codec ID : tx3g
Duration : 12 min 31 s
Bit rate mode : Variable
Bit rate : 78 b/s
Stream size : 7.15 KiB (0%)
Language : English
Default : Yes
Forced : No
Alternate group : 3

WWE La Previa

Complete name : WWE.La.Previa.Money.in.the.Bank.2021.720p.WEB.h264-HEEL.mp4
Format : MPEG-4
Format profile : Base Media
Codec ID : isom
File size : 673 MiB
Duration : 55 min 18 s
Overall bit rate mode : Variable
Overall bit rate : 1 700 kb/s

Video
ID : 1
Format : AVC
Format/Info : Advanced Video
Bit rate : 1 499 kb/s
Width : 1 280 pixels
Height : 720 pixels
Display aspect ratio : 16:9
Frame rate mode : Constant
Frame rate : 30.000 FPS
Color space : YUV
Chroma subsampling : 4:2:0
Bit depth : 8 bits
Scan type : Progressive
Bits/(Pixel*Frame) : 0.054
Stream size : 593 MiB (88%)

WWE La Previa

Audio
ID : 2
Format : AAC LC
Format/Info : Advanced Audio
Codec ID : mp4a-40-2
Duration : 55 min 18 s
Source duration : 55 min 18 s
Bit rate mode : Constant
Nominal bit rate : 193 kb/s
Maximum bit rate : 193 kb/s
Channel(s) : 2 channels
Channel layout : L R
Sampling rate : 48.0 kHz
Frame rate : 46.875 FPS
Compression mode : Lossy
Source stream size : 76.4 MiB (11%)
Default : Yes
Alternate group : 1
mdhd_Duration : 3318957

WWE La Previa

Text
ID : 3
Format : Timed Text
Muxing mode : sbtl
Codec ID : tx3g
Duration : 12 min 31 s
Bit rate mode : Variable
Bit rate : 78 b/s
Stream size : 7.15 KiB (0%)
Language : English
Default : Yes
Forced : No
Alternate group : 3

Complete name : WWE.La.Previa.Money.in.the.Bank.2021.1080p.WEB.h264-HEEL.mp4
Format : MPEG-4
Format profile : Base Media
Codec ID : isom
File size : 3.07 GiB
Duration : 55 min 18 s
Overall bit rate mode : Variable
Overall bit rate : 7 944 kb/s

WWE La Previa

Video
ID : 1
Format : AVC
Format/Info : Advanced Video
Duration : 55 min 18 s
Bit rate : 7 743 kb/s
Width : 1 920 pixels
Height : 1 080 pixels
Display aspect ratio : 16:9
Frame rate mode : Constant
Frame rate : 30.000 FPS
Color space : YUV
Chroma subsampling : 4:2:0
Bit depth : 8 bits
Scan type : Progressive
Bits/(Pixel*Frame) : 0.124
Stream size : 2.99 GiB (97%)

WWE La Previa

Audio
ID : 2
Format : AAC LC
Format/Info : Advanced Audio
Codec ID : mp4a-40-2
Duration : 55 min 18 s
Source duration : 55 min 18 s
Bit rate mode : Constant
Nominal bit rate : 193 kb/s
Maximum bit rate : 193 kb/s
Channel(s) : 2 channels
Channel layout : L R
Sampling rate : 48.0 kHz
Frame rate : 46.875 FPS
Compression mode : Lossy
Source stream size : 76.4 MiB (2%)
Default : Yes
Alternate group : 1
mdhd_Duration : 3318957

Text
ID : 3
Format : Timed Text
Muxing mode : sbtl
Codec ID : tx3g
Duration : 12 min 31 s
Bit rate mode : Variable
Bit rate : 78 b/s
Stream size : 7.15 KiB (0%)
Language : English
Default : Yes
Forced : No
Alternate group : 3

WWE La Previa

Complete name : WWE.La.Previa.Money.in.the.Bank.2021.720p.WEB.h264-HEEL.mp4
Format : MPEG-4
Format profile : Base Media
Codec ID : isom
File size : 673 MiB
Duration : 55 min 18 s
Overall bit rate mode : Variable
Overall bit rate : 1 700 kb/s

Video
ID : 1
Format : AVC
Format/Info : Advanced Video
Bit rate : 1 499 kb/s
Width : 1 280 pixels
Height : 720 pixels
Display aspect ratio : 16:9
Frame rate mode : Constant
Frame rate : 30.000 FPS
Color space : YUV
Chroma subsampling : 4:2:0
Bit depth : 8 bits
Scan type : Progressive
Bits/(Pixel*Frame) : 0.054
Stream size : 593 MiB (88%)

WWE La Previa

Audio
ID : 2
Format : AAC LC
Format/Info : Advanced Audio
Codec ID : mp4a-40-2
Duration : 55 min 18 s
Source duration : 55 min 18 s
Bit rate mode : Constant
Nominal bit rate : 193 kb/s
Maximum bit rate : 193 kb/s
Channel(s) : 2 channels
Channel layout : L R
Sampling rate : 48.0 kHz
Frame rate : 46.875 FPS
Compression mode : Lossy
Source stream size : 76.4 MiB (11%)
Default : Yes
Alternate group : 1
mdhd_Duration : 3318957

WWE La Previa

Text
ID : 3
Format : Timed Text
Muxing mode : sbtl
Codec ID : tx3g
Duration : 12 min 31 s
Bit rate mode : Variable
Bit rate : 78 b/s
Stream size : 7.15 KiB (0%)
Language : English
Default : Yes
Forced : No
Alternate group : 3

Complete name : WWE.La.Previa.Money.in.the.Bank.2021.1080p.WEB.h264-HEEL.mp4
Format : MPEG-4
Format profile : Base Media
Codec ID : isom
File size : 3.07 GiB
Duration : 55 min 18 s
Overall bit rate mode : Variable
Overall bit rate : 7 944 kb/s

WWE La Previa

Video
ID : 1
Format : AVC
Format/Info : Advanced Video
Duration : 55 min 18 s
Bit rate : 7 743 kb/s
Width : 1 920 pixels
Height : 1 080 pixels
Display aspect ratio : 16:9
Frame rate mode : Constant
Frame rate : 30.000 FPS
Color space : YUV
Chroma subsampling : 4:2:0
Bit depth : 8 bits
Scan type : Progressive
Bits/(Pixel*Frame) : 0.124
Stream size : 2.99 GiB (97%)

WWE La Previa

Audio
ID : 2
Format : AAC LC
Format/Info : Advanced Audio
Codec ID : mp4a-40-2
Duration : 55 min 18 s
Source duration : 55 min 18 s
Bit rate mode : Constant
Nominal bit rate : 193 kb/s
Maximum bit rate : 193 kb/s
Channel(s) : 2 channels
Channel layout : L R
Sampling rate : 48.0 kHz
Frame rate : 46.875 FPS
Compression mode : Lossy
Source stream size : 76.4 MiB (2%)
Default : Yes
Alternate group : 1
mdhd_Duration : 3318957

Text
ID : 3
Format : Timed Text
Muxing mode : sbtl
Codec ID : tx3g
Duration : 12 min 31 s
Bit rate mode : Variable
Bit rate : 78 b/s
Stream size : 7.15 KiB (0%)
Language : English
Default : Yes
Forced : No
Alternate group : 3

WWE La Previa

Complete name : WWE.La.Previa.Money.in.the.Bank.2021.720p.WEB.h264-HEEL.mp4
Format : MPEG-4
Format profile : Base Media
Codec ID : isom
File size : 673 MiB
Duration : 55 min 18 s
Overall bit rate mode : Variable
Overall bit rate : 1 700 kb/s

Video
ID : 1
Format : AVC
Format/Info : Advanced Video
Bit rate : 1 499 kb/s
Width : 1 280 pixels
Height : 720 pixels
Display aspect ratio : 16:9
Frame rate mode : Constant
Frame rate : 30.000 FPS
Color space : YUV
Chroma subsampling : 4:2:0
Bit depth : 8 bits
Scan type : Progressive
Bits/(Pixel*Frame) : 0.054
Stream size : 593 MiB (88%)

WWE La Previa

Audio
ID : 2
Format : AAC LC
Format/Info : Advanced Audio
Codec ID : mp4a-40-2
Duration : 55 min 18 s
Source duration : 55 min 18 s
Bit rate mode : Constant
Nominal bit rate : 193 kb/s
Maximum bit rate : 193 kb/s
Channel(s) : 2 channels
Channel layout : L R
Sampling rate : 48.0 kHz
Frame rate : 46.875 FPS
Compression mode : Lossy
Source stream size : 76.4 MiB (11%)
Default : Yes
Alternate group : 1
mdhd_Duration : 3318957

WWE La Previa

Text
ID : 3
Format : Timed Text
Muxing mode : sbtl
Codec ID : tx3g
Duration : 12 min 31 s
Bit rate mode : Variable
Bit rate : 78 b/s
Stream size : 7.15 KiB (0%)
Language : English
Default : Yes
Forced : No
Alternate group : 3

Complete name : WWE.La.Previa.Money.in.the.Bank.2021.1080p.WEB.h264-HEEL.mp4
Format : MPEG-4
Format profile : Base Media
Codec ID : isom
File size : 3.07 GiB
Duration : 55 min 18 s
Overall bit rate mode : Variable
Overall bit rate : 7 944 kb/s

WWE La Previa

Video
ID : 1
Format : AVC
Format/Info : Advanced Video
Duration : 55 min 18 s
Bit rate : 7 743 kb/s
Width : 1 920 pixels
Height : 1 080 pixels
Display aspect ratio : 16:9
Frame rate mode : Constant
Frame rate : 30.000 FPS
Color space : YUV
Chroma subsampling : 4:2:0
Bit depth : 8 bits
Scan type : Progressive
Bits/(Pixel*Frame) : 0.124
Stream size : 2.99 GiB (97%)

WWE La Previa

Audio
ID : 2
Format : AAC LC
Format/Info : Advanced Audio
Codec ID : mp4a-40-2
Duration : 55 min 18 s
Source duration : 55 min 18 s
Bit rate mode : Constant
Nominal bit rate : 193 kb/s
Maximum bit rate : 193 kb/s
Channel(s) : 2 channels
Channel layout : L R
Sampling rate : 48.0 kHz
Frame rate : 46.875 FPS
Compression mode : Lossy
Source stream size : 76.4 MiB (2%)
Default : Yes
Alternate group : 1
mdhd_Duration : 3318957

Text
ID : 3
Format : Timed Text
Muxing mode : sbtl
Codec ID : tx3g
Duration : 12 min 31 s
Bit rate mode : Variable
Bit rate : 78 b/s
Stream size : 7.15 KiB (0%)
Language : English
Default : Yes
Forced : No
Alternate group : 3

WWE La Previa

 

[collapse]

 

 

https://dx-tv.com/

Leave a Reply

Your email address will not be published. Required fields are marked *

This site uses Akismet to reduce spam. Learn how your comment data is processed.

Previous Post
WWE The Bump

WWE The Bump 2021 07 18 720p Online Free

Next Post
WWE Steve Austins Broken Skull Session Kevin Nash

WWE Steve Austins Broken Skull S01E18 Kevin Nash Free