WWE king Of The Ring Countdown 2021 Free Replay

WWE king Of The Ring Countdown 2021 Free Replay DX-TV

WWE king Of The Ring 

WWE king Of The Ring 

 

 

 

Download Links with premium High Speed
 

 


 

Dopapk

 

 

Show Links

 

 

no link here

 

 

 

 

 

Nitroflare

 

 

Show Links

 

 

http://shrt10.com/jkrmXtG
http://shrt10.com/hw8kV2

 

 

 

 

Rapidgator

 

 

Show Links

 

 

http://shrt10.com/fj8QxI0bb
http://shrt10.com/zDJ9xQ

 

 

 

 

 

Uploaded
 

 

 

Show Links

 

 

http://shrt10.com/joKhV
http://shrt10.com/dx5dArupJ

 

 

 

 

 

 

 

Watch WWE king Of The Ring online

 

Server 1

 

 

 

 

WWE king Of The Ring 

 

 

 

 

Server-2

 

 

 

 

watch now

 

 

 

|Server-3

 

 

 

 

watch now

 

 

Uploaded By Site DX-TV.com

 

 

Open Info Show

 

 

Complete name : WWE.King.Of.The.Ring.Countdown.2021.10.03.720p.HDTV.x264-NWCHD.mp4
Format : MPEG-4
Format profile : Base Media
Codec ID : mp441)
File size : 1.37 GiB
Duration : 41 min 19 s
Overall bit rate mode : Variable
Overall bit rate : 4 730 kb/s

king Of The Ring 

Video
ID : 1
Format : AVC
Codec ID/Info : Video Coding
Duration : 41 min 19 s
Bit rate : 4 500 kb/s
Width : 1 280 pixels
Height : 720 pixels
Display aspect ratio : 16:9
Frame rate mode : Constant
Frame rate : 29.970 (30000/1001) FPS
Color space : YUV
Chroma subsampling : 4:2:0
Bit depth : 8 bits
Scan type : Progressive
Bits/(Pixel*Frame) : 0.163
Stream size : 1.31 GiB (96%)
Color range : Limited
Color primaries : BT.709
Transfer characteristics : BT.709
Matrix coefficients : BT.709
Codec configuration box : avcC

Audio

WWE king Of The Ring 

ID : 2
Format : AAC LC
Format/Info : Advanced
Codec ID : mp4a-40-2
Duration : 41 min 19 s
Bit rate mode : Variable
Bit rate : 192 kb/s
Channel(s) : 2 channels
Channel layout : L R
Sampling rate : 48.0 kHz
Frame rate : 46.875 FPS (1024 SPF)
Compression mode : Lossy
Stream size : 56.8 MiB (4%)
Title : Stereo / Stereo
Language : English
Default : Yes
Alternate group : 1

Complete name : WWE.King.Of.The.Ring.Countdown.2021.10.03.1080p.HDTV.x264-NWCHD.mp4
Format : MPEG-4
Format profile : Base Media / Version 2
Codec ID : mp42
File size : 2.38 GiB
Duration : 41 min 19 s
Overall bit rate mode : Variable
Overall bit rate : 8 253 kb/s

Video
ID : 1
Format : AVC
Duration : 41 min 19 s
Bit rate : 8 000 kb/s
Width : 1 920 pixels
Height : 1 080 pixels
Display aspect ratio : 16:9
Frame rate mode : Constant
Frame rate : 29.970 (30000/1001) FPS
Color space : YUV
Chroma subsampling : 4:2:0
Bit depth : 8 bits
Scan type : Progressive
Bits/(Pixel*Frame) : 0.129
Stream size : 2.32 GiB (98%)
Color range : Limited
Color primaries : BT.709
Transfer characteristics : BT.709
Matrix coefficients : BT.709
Codec configuration box : avcC

WWE king Of The Ring 

Audio
ID : 2
Format : AAC LC
Format/Info : Advanced
Codec ID : mp4a-40-2
Duration : 41 min 19 s
Bit rate mode : Variable
Bit rate : 192 kb/s
Channel(s) : 2 channels
Channel layout : L R
Sampling rate : 48.0 kHz
Frame rate : 46.875 FPS (1024 SPF)
Compression mode : Lossy
Stream size : 56.8 MiB (2%)
Title : Stereo / Stereo
Language : English
Default : Yes
Alternate group : 1

 

 

https://dx-tv.com/

 

 

 

 

 

You May Also Like

Leave a Reply

Your email address will not be published. Required fields are marked *

This site uses Akismet to reduce spam. Learn how your comment data is processed.