WWE Hell In A Cell 2020 720p PPV Full Show Online

Watch WWE Hell In A Cell 2020 720p PPV Full Show Online DX-TV

 

WWE Hell In A Cell 2020

 

 WWE Hell In A Cell 2020
 

WWE Hell In A Cell 2020 720p PPV Full Show Online

 

Randy Orton def. Drew McIntyre to become the new WWE Champion (Hell in a Cell Match)

Randy Orton defeated Drew McIntyre to make history as a 14-time World Champion, and fittingly,

one of the most sinister Superstars of all time accomplished the feat inside WWE’s most sinister structure in an all-out war at WWE Hell in a Cell. 

The Viper entered the bout with an unblemished record in Hell in a Cell Matches with the WWE Title on the line, and he left with a perfect mark as well.

But it appeared far from imminent for much of the bout, as McIntyre seemed to have an answer for all of his rival’s moves. 

Orton ambushed The King of Claymore Country, dressing as a member of the stage crew and attacking him from behind .

before the match started. But McIntyre, all too familiar with Orton’s ploys by now, seemed prepared .

WWE Hell In A Cell 2020

and quickly collected himself before using the cage to his advantage early in his first-ever Hell in a Cell Match. 

Cracking Orton across the back with a steel chair and blasting him with steel steps,

McIntyre showed he was more than willing to match The Legend Killer’s renowned sadism.

an early Claymore attempt backfired, and Orton unleashed an assault of his own with a chair,

wedging it into McIntyre’s previously fractured jaw. 

WWE Hell In A Cell 2020

Complete name : WWE.Hell.In.A.Cell.2020.PPV.720p.WEB.h264-HEEL.mp4
Format : MPEG-4
Format profile : Base Media
Codec ID : isom
File size : 5.11 GiB
Duration : 2 h 57 min
Overall bit rate mode : Variable
Overall bit rate : 4 125 kb/s
Law rating : N/A
Writing application : Lavf58.32.104

WWE Hell In A Cell 2020

Video
ID : 1
Format : AVC
Duration : 2 h 57 min
Bit rate : 3 988 kb/s
Width : 1 280 pixels
Height : 720 pixels
Display aspect ratio : 16:9
Frame rate mode : Variable
Frame rate : 30.000 FPS
Color space : YUV
Chroma subsampling : 4:2:0
Bit depth : 8 bits
Scan type : Progressive
Bits/(Pixel*Frame) : 0.144
Stream size : 4.94 GiB (97%)
Codec configuration box : avcC

Audio
ID : 2
Format : AAC LC
Format/Info : Advanced Audio
Codec ID : mp4a-40-2
Duration : 2 h 57 min
Bit rate mode : Variable
Bit rate : 125 kb/s
Maximum bit rate : 130 kb/s
Channel(s) : 2 channels
Channel layout : L R
Sampling rate : 48.0 kHz
Frame rate : 46.875 FPS (1024 SPF)
Compression mode : Lossy
Stream size : 159 MiB (3%)
Default : Yes
Alternate group : 1

WWE Hell In A Cell 2020

Text #1
ID : 1-CC1
Format : EIA-608
Muxing mode : SCTE 128 / DTVCC Transport
Muxing mode, more info : Muxed in Video #1
Duration : 2 h 57 min
Bit rate mode : Constant
Stream size : 0.00 Byte (0%)
CaptionServiceName : CC1

Text #2
ID : 1-CC3
Format : EIA-608
Muxing mode : SCTE 128 / DTVCC Transport
Muxing mode, more info : Muxed in Video #1
Duration : 2 h 57 min
Bit rate mode : Constant
Stream size : 0.00 Byte (0%)
CaptionServiceName : CC3

WWE Hell In A Cell 2020

Text #3
ID : 1-1
Format : EIA-708
Muxing mode : SCTE 128 / DTVCC Transport
Muxing mode, more info : Muxed in Video #1
Duration : 2 h 57 min
Bit rate mode : Constant
Stream size : 0.00 Byte (0%)

Text #4
ID : 1-2
Format : EIA-708
Muxing mode : SCTE 128 / DTVCC Transport
Muxing mode, more info : Muxed in Video #1
Duration : 2 h 57 min
Bit rate mode : Constant
Stream size : 0.00 Byte (0%)

 

 

 

WWE Hell In A Cell 2020 720p PPV Full Show Online

 

 

Watch online

 

 

 

 

Server 1

 

 

 

 

WWE Hell In A Cell 2020

 

 

 

Server-3

 

 

 

watch now

 

 

 

 

Uploaded By Site DX-TV.com

 

 

 

 

Download Free Links with normal and high Speed [ more 14 hosts ]  

 

[su_expand more_text=”Show Hosts Info” less_text=”Close all Info” height=”30″ text_color=”#000000″ link_color=”#e25f8b” link_style=”button” more_icon=”icon: arrow-down” less_icon=”icon: arrow-up”]

 

WWE Hell In A Cell 2020

hexupload.net – clicknupload.co – www.multiup.org – uptobox.com – anonfiles.com – userscloud.com –

dropapk.to alfafile.net – ddownload.com – rockfile.co – 1fichier.com – filedown.org – katfile.com – filerio.in

 

 

[/su_expand]

 

 

http://shrt10.com/LKS6Fwl
http://shrt10.com/yONY4
http://shrt10.com/2jJUpEOe
http://shrt10.com/gRIIKR
http://shrt10.com/ZbgFg
http://shrt10.com/g6SQed

 

 

 

 

Download Links with premium High Speed   

 

 

 

 

dropapk.to

 

 

 

nitroflare.com

 

 

 

rapidgator.net

 

 

uploadgig.com

 

 

 

 

 

dx-tv.com

 

urlfree.net

Leave a Reply

Your email address will not be published. Required fields are marked *

This site uses Akismet to reduce spam. Learn how your comment data is processed.